[国家地理] [国家地理] 格罗德诺-皇家城市(2021)[2160P/MKV/525MB]

  [复制链接]

主题

帖子

0

积分

超级版主

Rank: 8Rank: 8

积分
0
 楼主| 发表于 2022-10-24 20:29:56 | 显示全部楼层 |阅读模式
格罗德诺。皇城(525MB) (2021) WEBRip 2160p.mkv_20221011_201516.308.jpg 格罗德诺。皇城(525MB) (2021) WEBRip 2160p.mkv_20221011_201525.564.jpg 格罗德诺。皇城(525MB) (2021) WEBRip 2160p.mkv_20221011_201530.404.jpg 格罗德诺。皇城(525MB) (2021) WEBRip 2160p.mkv_20221011_201538.700.jpg 格罗德诺。皇城(525MB) (2021) WEBRip 2160p.mkv_20221011_201550.068.jpg 格罗德诺。皇城(525MB) (2021) WEBRip 2160p.mkv_20221011_201603.108.jpg

影片
名称:格罗德诺. 皇家城市
发行年份: 2021
国家:白俄罗斯
时长: 00:04 : 17
类型: 物种
导演: Vadim Golotik

关于这部电影:

        我的第一个延时视频献给我的家乡格罗德诺。

Video
ID                             : 1
Format                         : VP9
Codec ID                       : V_VP9
Duration                       : 4 min 17 s
Bit rate                       : 17.0 Mb/s
Width                          : 3 840 pixels
Height                         : 2 160 pixels
Display aspect ratio           : 16:9
Frame rate mode                : Constant
Frame rate                     : 25.000 FPS
Color space                    : YUV
Bits/(Pixel*Frame)             : 0.082
Stream size                    : 521 MiB (99%)
Default                        : Yes
Forced                         : No
Color range                    : Limited
Color primaries                : BT.709
Transfer characteristics       : BT.709
Matrix coefficients            : BT.709

Audio
ID                             : 2
Format                         : Opus
Codec ID                       : A_OPUS
Duration                       : 4 min 17 s
Bit rate                       : 135 kb/s
Channel(s)                     : 2 channels
Channel layout                 : L R
Sampling rate                  : 48.0 kHz
Frame rate                     : 50.000 FPS (960 SPF)
Bit depth                      : 32 bits
Compression mode               : Lossy
Stream size                    : 4.13 MiB (1%)
Default                        : Yes
Forced                         : No
下载地址:

游客,如果您要查看本帖隐藏内容请回复




上一篇:[国家地理] 多洛米蒂山的白云岩(2021)[2160P/MKV/326MB]
下一篇:[国家地理] 精彩瑞士(2021)[2160P/MKV/3379MB]
回复

使用道具 举报

1

主题

1416

帖子

4080

积分

4K家园VIP

Rank: 9Rank: 9Rank: 9

积分
4080
发表于 2022-10-24 20:30:01 | 显示全部楼层
求沙发
回复 支持 反对

使用道具 举报

1

主题

1428

帖子

4138

积分

4K家园VIP

Rank: 9Rank: 9Rank: 9

积分
4138
发表于 2022-10-24 21:31:31 来自手机 | 显示全部楼层
高手云集 果断围观
回复 支持 反对

使用道具 举报

主题

帖子

0

积分

4K家园VIP

Rank: 9Rank: 9Rank: 9

积分
0
发表于 2022-10-25 09:18:39 | 显示全部楼层
太好啦&萬分感謝版主的無私發佈分享%
回复 支持 反对

使用道具 举报

主题

帖子

6

积分

新手上路

Rank: 1

积分
6
发表于 2022-10-25 17:10:10 | 显示全部楼层
为了资源而来!
回复 支持 反对

使用道具 举报

45

主题

1515

帖子

4393

积分

4K家园VIP

Rank: 9Rank: 9Rank: 9

积分
4393
发表于 2022-10-27 00:30:16 | 显示全部楼层
没明白
回复 支持 反对

使用道具 举报

61

主题

1537

帖子

4435

积分

4K家园VIP

Rank: 9Rank: 9Rank: 9

积分
4435
发表于 2022-11-6 15:18:16 | 显示全部楼层
介是神马?!!
回复 支持 反对

使用道具 举报

您需要登录后才可以回帖 登录 | 立即注册

本版积分规则

精彩图文
Archiver|手机版|TAG|Sitemap|新帖|专题|联系我们:邮箱: 4kjia.com@gmail.com   

4k家园   ©2019