[4K 欧美MV]奥利维亚·亚当斯-Dumb[2160P/MP4/420MB]

  [复制链接]

主题

帖子

0

积分

超级版主

Rank: 8Rank: 8

积分
0
 楼主| 发表于 2022-11-6 15:09:58 | 显示全部楼层 |阅读模式
Olivia Addams - Dumb.mp4_20221011_205238.450.jpg Olivia Addams - Dumb.mp4_20221011_205308.138.jpg Olivia Addams - Dumb.mp4_20221011_205322.306.jpg Olivia Addams - Dumb.mp4_20221011_205404.906.jpg Olivia Addams - Dumb.mp4_20221011_205418.065.jpg Olivia Addams - Dumb.mp4_20221011_205423.049.jpg

Video
ID                             : 1
Format                         : AVC
Format/Info                    : Advanced Video Codec
Format profile                 : Main@L5.1
Format settings                : CABAC / 1 Ref Frames
Format settings, CABAC         : Yes
Format settings, Reference fra : 1 frame
Format settings, GOP           : M=1, N=26
Codec ID                       : avc1
Codec ID/Info                  : Advanced Video Coding
Duration                       : 2 min 48 s
Duration_FirstFrame            : 46 ms
Bit rate mode                  : Variable
Bit rate                       : 20.5 Mb/s
Maximum bit rate               : 62.5 Mb/s
Width                          : 3 840 pixels
Height                         : 2 160 pixels
Display aspect ratio           : 16:9
Frame rate mode                : Constant
Frame rate                     : 25.000 FPS
Color space                    : YUV
Chroma subsampling             : 4:2:0
Bit depth                      : 8 bits
Scan type                      : Progressive
Bits/(Pixel*Frame)             : 0.099
Stream size                    : 413 MiB (98%)
Codec configuration box        : avcC

Audio
ID                             : 2
Format                         : AAC LC
Format/Info                    : Advanced Audio Codec Low Complexity
Codec ID                       : mp4a-40-2
Duration                       : 2 min 49 s
Bit rate mode                  : Variable
Bit rate                       : 353 kb/s
Maximum bit rate               : 384 kb/s
Channel(s)                     : 2 channels
Channel layout                 : L R
Sampling rate                  : 48.0 kHz
Frame rate                     : 46.875 FPS (1024 SPF)
Compression mode               : Lossy
Stream size                    : 7.25 MiB (2%)
Default                        : Yes
Alternate group                : 1
下载地址:


哈希值(下载方法与磁力链接相似):
****此区域为收费内容****    需支付 15 金币后可查看立即购买





上一篇:[4K欧美MV] 2022 Emilia - 四点二十分 [2160P/MP4/1.29GB]
下一篇:2022 Seulgi(红色天鹅绒)-28个理由 [2160P/MP4/2.47GB]
回复

使用道具 举报

48

主题

1596

帖子

4612

积分

4K家园VIP

Rank: 9Rank: 9Rank: 9

积分
4612
发表于 2022-11-6 15:10:10 | 显示全部楼层
顶起顶起顶起
回复 支持 反对

使用道具 举报

54

主题

1593

帖子

4570

积分

4K家园VIP

Rank: 9Rank: 9Rank: 9

积分
4570
发表于 2022-11-6 15:10:11 | 显示全部楼层
珍爱生命,果断回帖。
回复 支持 反对

使用道具 举报

主题

帖子

0

积分

新手上路

Rank: 1

积分
0
发表于 6 天前 | 显示全部楼层
谢谢楼主分享
回复 支持 反对

使用道具 举报

您需要登录后才可以回帖 登录 | 立即注册

本版积分规则

精彩图文
Archiver|手机版|TAG|Sitemap|新帖|专题|联系我们:邮箱: 4kjia.com@gmail.com   

4k家园   ©2019