[4K电影] 西区故事 / West Side Story (1961) 4K高清版本下载

[复制链接]

主题

帖子

0

积分

超级版主

Rank: 8Rank: 8

积分
0
 楼主| 发表于 2022-10-12 19:36:20 | 显示全部楼层 |阅读模式
110058f1myqypzdnmgu7mg.png

◎译  名 西区故事/梦断城西(港)/西城故事(台)
◎片  名 West Side Story
◎年  代 1961
◎产  地 美国
◎类  别 剧情 / 爱情 / 歌舞 / 犯罪
◎语  言 英语,西班牙语
◎上映日期 1961-10-18
◎IMDb评分 7.6/10 from 114228 users 更新 : 2022-10-12
◎IMDb链接 https://www.imdb.com/title/tt0055614/
◎豆瓣评分 7.5/10 from 10856 users 更新 : 2022-10-12
◎豆瓣链接 https://movie.douban.com/subject/1295225/
◎片  长 152 分钟
◎导  演 杰罗姆·罗宾斯 Jerome Robbins / 罗伯特·怀斯 Robert Wise
◎编  剧 恩斯特·莱赫曼 Ernest Lehman / 史蒂芬·桑德海姆 Stephen Sondheim
◎主  演 娜塔莉·伍德 Natalie Wood
       理查德·贝梅尔 Richard Beymer
       拉斯·坦布林 Russ Tamblyn
       丽塔·莫雷诺 Rita Moreno
       乔治·查金思 George Chakiris
       Gus Trikonis Gus Trikonis
       大卫·温特斯 David Winters
       托尼·莫邓特 Tony Mordente
       伯特·迈克尔斯 Bert Michaels
       大卫·比恩 David Bean
       拉里·罗克莫尔 Larry Roquemore
       塔克·史密斯 Tucker Smith
       艾略特·菲尔德 Eliot Feld
       哈维·埃文斯 Harvey Evans
       汤米·阿巴特 Tommy Abbott
       何塞·德韦加 Jose De Vega
       吉娜·特里科尼斯 Gina Trikonis
       罗伯特·E·汤普森 Robert E. Thompson
       鲁迪·德尔·坎波 Rudy Del Campo
       伊冯·怀尔德 Yvonne Wilder
       苏珊·奥克斯 Susan Oakes
       卡罗尔·德安德烈 Carole D'Andrea
       Anthony 'Scooter' Teague Anthony 'Scooter' Teague
       罗伯特·巴纳斯 Robert Banas
       杰米·罗杰斯 Jaime Rogers


◎简  介


  曼哈顿西部贫民区里有两帮势不两立的流氓团伙,一个是由白人里弗领导的“火箭”帮,另一个是由波多黎各人贝尔纳尔多带头的“鲨鱼”帮。两帮相互仇视,经常斗殴生事。一次西区举行舞会,两个帮派相互拼舞,里弗的朋友托尼(理查德·贝梅尔 Richard Beymer 饰)与贝尔纳尔多的妹妹玛丽亚(娜塔利·伍德 Natalie Wood 饰)一见钟情。贝尔纳尔多发现两人的爱慕后,强行让手下带走了妹妹。夜里,托尼站在玛丽亚的窗前呼唤她,两人坚定地相爱了。第二天,玛丽亚听说“鲨鱼帮”将和“火箭帮”决斗,便让托尼前去阻止。托尼匆匆赶到现场,试图阻止斗殴的发生,在混乱中好友里弗被杀,他出于自卫失手杀死贝尔纳尔多。这让玛丽亚陷入矛盾和痛苦中,她忍受着家人的责骂与侮辱,但心中无法放下托尼。贝尔纳尔多的好友持枪寻找托尼算帐,得知消息的玛丽亚匆匆赶去报信,然而悲剧赶在她之前发生了……

  本片夺得1961年奥斯卡最佳影片、最佳导演、最佳男配角、最佳女配角等十项大奖。

◎获奖情况

  第34届奥斯卡金像奖 ?(1962)
  最佳影片 罗伯特·怀斯
  最佳导演 杰罗姆·罗宾斯?/?罗伯特·怀斯
  最佳男配角 乔治·查金思
  最佳女配角 丽塔·莫雷诺
  最佳改编剧本(提名) 恩斯特·莱赫曼
  彩色片最佳摄影 丹尼尔·L·法普
  最佳剪辑 ThomasStanford
  最佳音响 弗雷德·海因斯?/?GordonSawyer
  彩色片最佳艺术指导和布景 VictorA.Gangelin?/?鲍里斯·莱文
  彩色片最佳服装设计 艾琳·沙拉夫
  歌舞片最佳配乐 席德·拉明?/?SaulChaplin?/?JohnnyGreen?/?IrwinKostal

  第19届金球奖 ?(1962)
  电影类最佳音乐片
  电影类最佳导演(提名) 杰罗姆·罗宾斯?/?罗伯特·怀斯
  电影类音乐/喜剧片最佳男主角(提名) 理查德·贝梅尔
  电影类最佳男配角 乔治·查金思
  电影类最佳女配角 丽塔·莫雷诺

Video
ID : 1
Format : HEVC
Format/Info : High Efficiency Video Coding
Format profile : Main 10@L5.1@Main
HDR format : SMPTE ST 2086, HDR10 compatible
Codec ID : V_MPEGH/ISO/HEVC
Duration : 2 h 33 min
Bit rate : 8 023 kb/s
Width : 3 840 pixels
Height : 1 736 pixels
Display aspect ratio : 2.2:1
Frame rate mode : Constant
Frame rate : 23.976 (24000/1001) FPS
Color space : YUV
Chroma subsampling : 4:2:0
Bit depth : 10 bits
Bits/(Pixel*Frame) : 0.050
Stream size : 8.62 GiB (93%)
Writing library : x265 3.5+rarbg-HDR-38-20255e6:[Linux][clang 16.0.0][64 bit] 10bit
Encoding settings : cpuid=1111039 / frame-threads=6 / wpp / no-pmode / no-pme / no-psnr / no-ssim / log-level=2 / input-csp=1 / input-res=3840x1736 / interlace=0 / total-frames=0 / level-idc=51 / high-tier=1 / uhd-bd=0 / ref=4 / no-allow-non-conformance / repeat-headers / annexb / aud / no-eob / no-eos / no-hrd / info / hash=0 / no-temporal-layers / no-open-gop / min-keyint=1 / keyint=24 / gop-lookahead=0 / bframes=4 / b-adapt=2 / b-pyramid / bframe-bias=0 / rc-lookahead=25 / lookahead-slices=4 / scenecut=40 / no-hist-scenecut / radl=0 / no-splice / no-intra-refresh / ctu=64 / min-cu-size=8 / rect / no-amp / max-tu-size=32 / tu-inter-depth=1 / tu-intra-depth=1 / limit-tu=0 / rdoq-level=2 / dynamic-rd=0.00 / no-ssim-rd / signhide / no-tskip / nr-intra=0 / nr-inter=0 / no-constrained-intra / strong-intra-smoothing / max-merge=3 / limit-refs=3 / no-limit-modes / me=3 / subme=3 / merange=57 / temporal-mvp / no-frame-dup / no-hme / weightp / no-weightb / no-analyze-src-pics / deblock=0:0 / no-sao / no-sao-non-deblock / rd=4 / selective-sao=0 / no-early-skip / rskip / no-fast-intra / no-tskip-fast / no-cu-lossless / no-b-intra / no-splitrd-skip / rdpenalty=0 / psy-rd=2.00 / psy-rdoq=1.00 / no-rd-refine / no-lossless / cbqpoffs=0 / crqpoffs=0 / rc=abr / bitrate=8000 / qcomp=0.60 / qpstep=4 / stats-write=0 / stats-read=2 / cplxblur=20.0 / qblur=0.5 / ipratio=1.40 / pbratio=1.30 / aq-mode=1 / aq-strength=1.00 / cutree / zone-count=0 / no-strict-cbr / qg-size=32 / no-rc-grain / qpmax=69 / qpmin=0 / no-const-vbv / sar=1 / overscan=0 / videoformat=5 / range=0 / colorprim=9 / transfer=16 / colormatrix=9 / chromaloc=0 / display-window=0 / master-display=G(8500,39850)B(6550,2300)R(35400,14600)WP(15635,16450)L(10000000,50) / cll=8352,422 / min-luma=0 / max-luma=1023 / log2-max-poc-lsb=8 / vui-timing-info / vui-hrd-info / slices=1 / no-opt-qp-pps / no-opt-ref-list-length-pps / no-multi-pass-opt-rps / scenecut-bias=0.05 / hist-threshold=0.03 / no-opt-cu-delta-qp / no-aq-motion / hdr10 / hdr10-opt / no-dhdr10-opt / no-idr-recovery-sei / analysis-reuse-level=0 / analysis-save-reuse-level=0 / analysis-load-reuse-level=0 / scale-factor=0 / refine-intra=0 / refine-inter=0 / refine-mv=1 / refine-ctu-distortion=0 / no-limit-sao / ctu-info=0 / no-lowpass-dct / refine-analysis-type=0 / copy-pic=1 / max-ausize-factor=1.0 / no-dynamic-refine / no-single-sei / no-hevc-aq / no-svt / no-field / qp-adaptation-range=1.00 / scenecut-aware-qp=0conformance-window-offsets / right=0 / bottom=0 / decoder-max-rate=0 / no-vbv-live-multi-pass
Default : Yes
Forced : No
Color range : Limited
Color primaries : BT.2020
Transfer characteristics : PQ
Matrix coefficients : BT.2020 non-constant
Mastering display color primaries : BT.2020
Mastering display luminance : min: 0.0050 cd/m2, max: 1000 cd/m2
Maximum Content Light Level : 8352 cd/m2
Maximum Frame-Average Light Level : 422 cd/m2

Audio
ID : 2
Format : E-AC-3
Format/Info : Enhanced AC-3
Commercial name : Dolby Digital Plus
Codec ID : A_EAC3
Duration : 2 h 33 min
Bit rate mode : Constant
Bit rate : 640 kb/s
Channel(s) : 6 channels
Channel layout : L R C LFE Ls Rs
Sampling rate : 48.0 kHz
Frame rate : 31.250 FPS (1536 SPF)
Compression mode : Lossy
Stream size : 704 MiB (7%)
Title : English DDP 5.1
Language : English
Service kind : Complete Main
Default : Yes
Forced : No

Text #1
ID : 3
Format : UTF-8
Codec ID : S_TEXT/UTF8
Codec ID/Info : UTF-8 Plain Text
Duration : 2 h 33 min
Bit rate : 46 b/s
Frame rate : 0.198 FPS
Count of elements : 1826
Stream size : 52.7 KiB (0%)
Title : English SRT
Language : English
Default : Yes
Forced : No

Text #2
ID : 4
Format : UTF-8
Codec ID : S_TEXT/UTF8
Codec ID/Info : UTF-8 Plain Text
Duration : 2 h 26 min
Bit rate : 60 b/s
Frame rate : 0.256 FPS
Count of elements : 2249
Stream size : 64.9 KiB (0%)
Title : English SDH SRT
Language : English
Default : No
Forced : No

Menu
00:00:00.000 : en:Overture/Main Title
00:05:02.051 : enrologue
00:14:54.101 : en:Snowing the Coppers
00:17:41.101 : en:How to Hold Turf/Jet Song
00:23:02.589 : en:Something's Coming
00:28:50.770 : en:Not Giving an Inch
00:31:47.322 : enance at the Gym
00:39:07.803 : enove Across the Lines
00:42:53.070 : en:Riff's Challenge
00:44:16.070 : en:Maria
00:46:56.980 : en:America
00:54:27.973 : en:"I Don't Wait"
00:56:01.608 : en:Tonight
01:03:03.571 : en:Gee, Officer Krupke!
01:10:29.224 : en:The War Council
01:15:20.224 : en:Sweet Land of Liberty
01:22:54.552 : en:I Feel Pretty
01:26:27.682 : en:What Anita Can't See
01:29:12.972 : en:One Hand, One Heart
01:34:57.233 : en:Tonight (Ensemble)
01:38:16.849 : en:The Rumble
01:46:30.592 : en:Breaking the News
01:49:32.399 : en:Somewhere
01:53:11.159 : en:"I'm Scared"
01:55:08.526 : en:Cool
02:02:40.936 : en:Gotta Find Tony
02:04:38.262 : en:A Boy Like That/I Have a Love
02:11:22.416 : enetaining Maria
02:13:12.734 : en:Anita's Message
02:18:04.275 : en:No Cure From Doc
02:20:09.067 : en:Finale
02:28:34.697 : en:End Credits


为了更好体验下载、推荐使用qBittorrent、uTorrent、BitComet等下载软件,有条件的推荐115或会员下载软件!

下载地址:


游客,如果您要查看本帖隐藏内容请回复

游客,如果您要查看本帖隐藏内容请回复







上一篇:养鬼吃人 / Hellraiser (2022) 4K高清版本下载
下一篇:尽善尽美 [简繁中字] / As Good as It Gets (1997) 4K高清版本下载
回复

使用道具 举报

1

主题

1404

帖子

4231

积分

4K家园VIP

Rank: 9Rank: 9Rank: 9

积分
4231
发表于 2022-10-12 19:36:27 | 显示全部楼层
专业抢沙发的!哈哈
回复 支持 反对

使用道具 举报

主题

帖子

2701

积分

注册会员

Rank: 2

积分
2701
发表于 2022-10-12 20:22:27 | 显示全部楼层
感谢分享
回复

使用道具 举报

主题

帖子

0

积分

新手上路

Rank: 1

积分
0
发表于 2022-10-12 21:33:14 | 显示全部楼层
感谢分享
回复

使用道具 举报

0

主题

1771

帖子

4921

积分

4K家园VIP

Rank: 9Rank: 9Rank: 9

积分
4921
发表于 2022-10-12 23:30:06 | 显示全部楼层
谢谢楼主
回复 支持 反对

使用道具 举报

5

主题

1682

帖子

4666

积分

中级会员

Rank: 4

积分
4666
发表于 2022-10-13 19:25:00 | 显示全部楼层
看起来好像不错的样子
回复 支持 反对

使用道具 举报

1

主题

1389

帖子

4185

积分

4K家园VIP

Rank: 9Rank: 9Rank: 9

积分
4185
发表于 2022-10-14 13:21:42 | 显示全部楼层
秀起来~
回复 支持 反对

使用道具 举报

37

主题

1465

帖子

4211

积分

4K家园VIP

Rank: 9Rank: 9Rank: 9

积分
4211
发表于 2022-10-14 22:39:27 来自手机 | 显示全部楼层
报告!别开枪,我就是路过来看看的。。。
回复 支持 反对

使用道具 举报

49

主题

1531

帖子

4395

积分

4K家园VIP

Rank: 9Rank: 9Rank: 9

积分
4395
发表于 2022-11-9 04:43:01 | 显示全部楼层
求沙发
回复 支持 反对

使用道具 举报

您需要登录后才可以回帖 登录 | 立即注册

本版积分规则

精彩图文
Archiver|手机版|TAG|Sitemap|新帖|专题|联系我们:邮箱: 4kjia.com@gmail.com   

4k家园   ©2019