[4K电影] 尽善尽美 [简繁中字] / As Good as It Gets (1997) 4K高清版本下载

[复制链接]

主题

帖子

0

积分

超级版主

Rank: 8Rank: 8

积分
0
 楼主| 发表于 2022-10-12 19:50:40 | 显示全部楼层 |阅读模式
QQ图片20221012194636_副本.png

◎标  题 尽善尽美
◎译  名 猫屎先生(港) / 爱在心头口难开(台) / 人生就是这样 / 渐入佳境 / 恋爱小说家
◎片  名 As Good as It Gets
◎年  代 1997
◎产  地 美国
◎类  别 剧情 / 喜剧 / 爱情
◎语  言 英语
◎上映日期 1997-12-25
◎IMDb评分 7.7/10 (294917人评价)
◎IMDb链接 https://www.imdb.com/title/tt0119822/
◎豆瓣评分 8.2/10 (28835人评价)
◎豆瓣链接 https://movie.douban.com/subject/1293917/
◎片  长 139分钟
◎导  演 詹姆斯·L·布鲁克斯 James L. Brooks
◎编  剧 马克·安德勒斯 Mark Andrus
      詹姆斯·L·布鲁克斯 James L. Brooks
◎演  员 杰克·尼科尔森 Jack Nicholson
      海伦·亨特 Helen Hunt
      格雷戈·金尼尔 Greg Kinnear
      小库珀·古丁 Cuba Gooding Jr.
      斯基特·乌尔里奇 Skeet Ulrich
      雪莉·奈特 Shirley Knight
      雅德丽·史密斯 Yeardley Smith
      露贝·安缇维洛 Lupe Ontiveros
      Bibi Osterwald Bibi Osterwald
      贾菲·柯恩 Jaffe Cohen
      布赖恩·道尔 Brian Doyle
      克里斯蒂·吉 Kristi Zea
      Patricia Childress Patricia Childress
      Rebekah Johnson Rebekah Johnson
      米西·派勒 Missi Pyle
      莱斯利·史蒂芬森 Leslie Stefanson
      塔拉·苏博科夫 Tara Subkoff
      沙恩·布莱克 Shane Black
      彼得·雅各布森 Peter Jacobson
      丽莎·艾德尔斯汀 Lisa Edelstein
      兰道尔·巴蒂尼科夫 Randall Batinkoff
      杰西·詹姆斯 Jesse James
      杰米·肯尼迪 Jamie Kennedy
      贾斯汀·赫维克 Justin Herwick
      玛娅·鲁道夫 Maya Rudolph
      Mary Elizabeth Still Mary Elizabeth Still
      劳伦斯·卡斯丹 Lawrence Kasdan
      凯瑟琳·莫里斯 Kathryn Morris
      伍德·哈里斯 Wood Harris
      琳达·格赫林格 Linda Gehringer
      朱莉·本茨 Julie Benz
      哈罗德·雷米斯 Harold Ramis
      Kaitlin Hopkins Kaitlin Hopkins
      Jimmy Workman Jimmy Workman
      Danielle Spencer Danielle Spencer
      托德·索伦兹 Todd Solondz
      汤姆·麦高恩 Tom McGowan
      丹妮尔·布里瑟布瓦 Danielle Brisebois
      马特·马洛伊 Matt Malloy
      阿尔巴·阿尔巴尼斯 Alba Albanese
      Eddie L. Fauria
      James Gosnell
      莫里斯·拉马奇 Maurice LaMarche
      约翰尼·曼斯巴赫 Johnny Mansbach
      Oriana Nicole Tavoularis Oriana Nicole Tavoularis
      欧文·威尔逊 Owen Wilson
      布里吉特·约翰逊 Bridget Johnson
      劳伦斯·马克 Laurence Mark
      Aldric La'Auli Porter Aldric La'Auli Porter
      汉斯·季默 Hans Zimmer
      茱迪丝·欧文 Judith Owen
      Clay A. Griffith Clay A. Griffith
      比尔·布鲁茨基 Bill Brzeski
      米切尔·布克 Michèle Burke
      Allen Weisinger Allen Weisinger
      乔伊·萨帕塔 Joy Zapata
      迈克尔·杰曼 Michael Germain
      Linda Arnold Linda Arnold
      Aldric La'Auli Porter Aldric La'Auli Porter
      马克·丹菲特 Mark Dornfeld


◎简  介


  作家梅尔文(杰克•尼科尔森 饰)是一个脾气古怪的强迫症老头,没有家庭也没有朋友,整天关在屋里写他的第六十二部小说,生活如时钟般精准,受不了一点的打扰。
梅尔文的邻居西蒙(格雷戈•金尼尔 饰)是年轻的同性恋画家,养了一条可爱的小狗,生性活泼,脾气温和,经常受到梅尔文的侮辱。
梅尔文每天只出门一次,到同一家餐厅吃饭,餐厅女招待卡罗尔•康奈莉(海伦•亨特 饰)是唯一愿意而且能够为他服务的人。离了婚的卡罗尔与儿子斯潘塞住在一起,斯潘塞患有严重的哮喘病,这使得许多对卡罗尔有意思的男子知难而退。
一天,西蒙的住所遭到抢劫,西蒙身受重伤,住院前,将小狗托付给梅尔文照料,梅尔文渐渐喜欢上了这个小家伙,心理也发生了变化,开始关注周边的世界,主动帮助别人,认真审视自己对卡罗尔的好感……

Video
ID : 1
Format : HEVC
Format/Info : High Efficiency Video Coding
Format profile : Main 10@L5@High
Codec ID : V_MPEGH/ISO/HEVC
Duration : 2 h 18 min
Bit rate : 20.7 Mb/s
Width : 3 840 pixels
Height : 2 072 pixels
Display aspect ratio : 1.85:1
Frame rate mode : Constant
Frame rate : 23.976 (24000/1001) FPS
Color space : YUV
Chroma subsampling : 4:2:0
Bit depth : 10 bits
Bits/(Pixel*Frame) : 0.109
Stream size : 20.1 GiB (82%)
Default : Yes
Forced : No
Color range : Limited
Color primaries : BT.709
Transfer characteristics : BT.709
Matrix coefficients : BT.709

Audio #1
ID : 2
ID in the original source medium : 4352 (0x1100)
Format : DTS XLL
Format/Info : Digital Theater Systems
Commercial name : DTS-HD Master Audio
Codec ID : A_DTS
Duration : 2 h 18 min
Bit rate mode : Variable
Bit rate : 4 193 kb/s
Channel(s) : 6 channels
Channel layout : C L R Ls Rs LFE
Sampling rate : 48.0 kHz
Frame rate : 93.750 FPS (512 SPF)
Bit depth : 24 bits
Compression mode : Lossless
Delay relative to video : 10 ms
Stream size : 4.06 GiB (17%)
Language : English
Default : Yes
Forced : No
Original source medium : Blu-ray

Audio #2
ID : 3
Format : AC-3
Format/Info : Audio Coding 3
Commercial name : Dolby Digital
Codec ID : A_AC3
Duration : 2 h 18 min
Bit rate mode : Constant
Bit rate : 384 kb/s
Channel(s) : 6 channels
Channel layout : L R C LFE Ls Rs
Sampling rate : 48.0 kHz
Frame rate : 31.250 FPS (1536 SPF)
Compression mode : Lossy
Stream size : 381 MiB (2%)
Language : English
Service kind : Complete Main
Default : Yes
Forced : No

Text #1
ID : 4
Format : UTF-8
Codec ID : S_TEXT/UTF8
Codec ID/Info : UTF-8 Plain Text
Duration : 2 h 18 min
Bit rate : 57 b/s
Frame rate : 0.207 FPS
Count of elements : 1723
Stream size : 58.6 KiB (0%)
Title : English CC
Language : English
Default : No
Forced : No

Text #2
ID : 5
Format : UTF-8
Codec ID : S_TEXT/UTF8
Codec ID/Info : UTF-8 Plain Text
Duration : 2 h 13 min
Bit rate : 60 b/s
Frame rate : 0.152 FPS
Count of elements : 1214
Stream size : 58.9 KiB (0%)
Title : Arabic
Language : Arabic
Default : No
Forced : No

Text #3
ID : 6
Format : UTF-8
Codec ID : S_TEXT/UTF8
Codec ID/Info : UTF-8 Plain Text
Duration : 2 h 13 min
Bit rate : 48 b/s
Frame rate : 0.205 FPS
Count of elements : 1640
Stream size : 47.5 KiB (0%)
Title : 中文简体
Language : Chinese
Default : No
Forced : No

Text #4
ID : 7
Format : UTF-8
Codec ID : S_TEXT/UTF8
Codec ID/Info : UTF-8 Plain Text
Duration : 2 h 13 min
Bit rate : 46 b/s
Frame rate : 0.162 FPS
Count of elements : 1289
Stream size : 45.4 KiB (0%)
Title : 中文繁体
Language : Chinese
Default : No
Forced : No

Text #5
ID : 8
Format : UTF-8
Codec ID : S_TEXT/UTF8
Codec ID/Info : UTF-8 Plain Text
Duration : 2 h 13 min
Bit rate : 47 b/s
Frame rate : 0.161 FPS
Count of elements : 1283
Stream size : 46.7 KiB (0%)
Title : Czech
Language : Czech
Default : No
Forced : No

Text #6
ID : 9
Format : UTF-8
Codec ID : S_TEXT/UTF8
Codec ID/Info : UTF-8 Plain Text
Duration : 2 h 13 min
Bit rate : 43 b/s
Frame rate : 0.144 FPS
Count of elements : 1148
Stream size : 42.2 KiB (0%)
Title : Danish
Language : Danish
Default : No
Forced : No

Text #7
ID : 10
Format : UTF-8
Codec ID : S_TEXT/UTF8
Codec ID/Info : UTF-8 Plain Text
Duration : 2 h 13 min
Bit rate : 44 b/s
Frame rate : 0.144 FPS
Count of elements : 1146
Stream size : 43.2 KiB (0%)
Title : German
Language : German
Default : No
Forced : No

Text #8
ID : 11
Format : UTF-8
Codec ID : S_TEXT/UTF8
Codec ID/Info : UTF-8 Plain Text
Duration : 2 h 13 min
Bit rate : 78 b/s
Frame rate : 0.161 FPS
Count of elements : 1287
Stream size : 76.1 KiB (0%)
Title : Greek
Language : Greek
Default : No
Forced : No

Text #9
ID : 12
Format : UTF-8
Codec ID : S_TEXT/UTF8
Codec ID/Info : UTF-8 Plain Text
Duration : 2 h 13 min
Bit rate : 43 b/s
Frame rate : 0.146 FPS
Count of elements : 1163
Stream size : 42.5 KiB (0%)
Title : Finnish
Language : Finnish
Default : No
Forced : No

Text #10
ID : 13
Format : UTF-8
Codec ID : S_TEXT/UTF8
Codec ID/Info : UTF-8 Plain Text
Duration : 2 h 13 min
Bit rate : 47 b/s
Frame rate : 0.154 FPS
Count of elements : 1230
Stream size : 46.1 KiB (0%)
Title : French European
Language : French
Default : No
Forced : No

Text #11
ID : 14
Format : UTF-8
Codec ID : S_TEXT/UTF8
Codec ID/Info : UTF-8 Plain Text
Duration : 2 h 13 min
Bit rate : 57 b/s
Frame rate : 0.146 FPS
Count of elements : 1163
Stream size : 55.7 KiB (0%)
Title : Hebrew
Language : Hebrew
Default : No
Forced : No

Text #12
ID : 15
Format : UTF-8
Codec ID : S_TEXT/UTF8
Codec ID/Info : UTF-8 Plain Text
Duration : 2 h 13 min
Bit rate : 119 b/s
Frame rate : 0.162 FPS
Count of elements : 1289
Stream size : 116 KiB (0%)
Title : Hindi
Language : Hindi
Default : No
Forced : No

Text #13
ID : 16
Format : UTF-8
Codec ID : S_TEXT/UTF8
Codec ID/Info : UTF-8 Plain Text
Duration : 2 h 13 min
Bit rate : 40 b/s
Frame rate : 0.147 FPS
Count of elements : 1172
Stream size : 39.4 KiB (0%)
Title : Hungarian
Language : Hungarian
Default : No
Forced : No

Text #14
ID : 17
Format : UTF-8
Codec ID : S_TEXT/UTF8
Codec ID/Info : UTF-8 Plain Text
Duration : 2 h 18 min
Bit rate : 41 b/s
Frame rate : 0.139 FPS
Count of elements : 1148
Stream size : 42.2 KiB (0%)
Title : Italian
Language : Italian
Default : No
Forced : No

Text #15
ID : 18
Format : UTF-8
Codec ID : S_TEXT/UTF8
Codec ID/Info : UTF-8 Plain Text
Duration : 2 h 12 min
Bit rate : 44 b/s
Frame rate : 0.155 FPS
Count of elements : 1233
Stream size : 43.1 KiB (0%)
Title : Korean
Language : Korean
Default : No
Forced : No

Text #16
ID : 19
Format : UTF-8
Codec ID : S_TEXT/UTF8
Codec ID/Info : UTF-8 Plain Text
Duration : 2 h 13 min
Bit rate : 43 b/s
Frame rate : 0.143 FPS
Count of elements : 1141
Stream size : 42.4 KiB (0%)
Title : Dutch
Language : Dutch
Default : No
Forced : No

Text #17
ID : 20
Format : UTF-8
Codec ID : S_TEXT/UTF8
Codec ID/Info : UTF-8 Plain Text
Duration : 2 h 13 min
Bit rate : 35 b/s
Frame rate : 0.143 FPS
Count of elements : 1144
Stream size : 34.9 KiB (0%)
Title : Norwegian
Language : Norwegian
Default : No
Forced : No

Text #18
ID : 21
Format : UTF-8
Codec ID : S_TEXT/UTF8
Codec ID/Info : UTF-8 Plain Text
Duration : 2 h 13 min
Bit rate : 46 b/s
Frame rate : 0.156 FPS
Count of elements : 1241
Stream size : 45.0 KiB (0%)
Title : Polish
Language : Polish
Default : No
Forced : No

Text #19
ID : 22
Format : UTF-8
Codec ID : S_TEXT/UTF8
Codec ID/Info : UTF-8 Plain Text
Duration : 2 h 13 min
Bit rate : 45 b/s
Frame rate : 0.144 FPS
Count of elements : 1153
Stream size : 44.0 KiB (0%)
Title : Swedish
Language : Swedish
Default : No
Forced : No

Text #20
ID : 23
Format : UTF-8
Codec ID : S_TEXT/UTF8
Codec ID/Info : UTF-8 Plain Text
Duration : 2 h 13 min
Bit rate : 106 b/s
Frame rate : 0.150 FPS
Count of elements : 1197
Stream size : 104 KiB (0%)
Title : Thai
Language : Thai
Default : No
Forced : No

Text #21
ID : 24
Format : UTF-8
Codec ID : S_TEXT/UTF8
Codec ID/Info : UTF-8 Plain Text
Duration : 2 h 13 min
Bit rate : 41 b/s
Frame rate : 0.159 FPS
Count of elements : 1270
Stream size : 40.6 KiB (0%)
Title : Turkish
Language : Turkish
Default : No
Forced : No

Menu
00:00:00.000 : en:Chapter 01
00:05:46.638 : en:Chapter 02
00:10:08.608 : en:Chapter 03
00:23:21.985 : en:Chapter 04
00:30:06.556 : en:Chapter 05
00:42:08.820 : en:Chapter 06
00:48:30.201 : en:Chapter 07
00:58:31.553 : en:Chapter 08
01:07:02.564 : en:Chapter 09
01:13:28.950 : en:Chapter 10
01:22:53.014 : en:Chapter 11
01:26:43.119 : en:Chapter 12
01:33:20.975 : en:Chapter 13
01:45:10.310 : en:Chapter 14
01:55:40.065 : en:Chapter 15
02:04:40.271 : en:Chapter 16


为了更好体验下载、推荐使用qBittorrent、uTorrent、BitComet等下载软件,有条件的推荐115或会员下载软件!

下载地址:


游客,如果您要查看本帖隐藏内容请回复

游客,如果您要查看本帖隐藏内容请回复





上一篇:西区故事 / West Side Story (1961) 4K高清版本下载
下一篇:[4Kjia压制]仿生人妻子 [DIY简繁] / WifeLike (2022) 4K高清版本下载
回复

使用道具 举报

2

主题

1731

帖子

4811

积分

4K家园VIP

Rank: 9Rank: 9Rank: 9

积分
4811
发表于 2022-10-12 19:50:43 来自手机 | 显示全部楼层
前排支持下
回复 支持 反对

使用道具 举报

1

主题

1409

帖子

4245

积分

4K家园VIP

Rank: 9Rank: 9Rank: 9

积分
4245
发表于 2022-10-13 06:26:42 | 显示全部楼层
感谢推荐,确实不错
回复 支持 反对

使用道具 举报

2

主题

1392

帖子

4030

积分

4K家园VIP

Rank: 9Rank: 9Rank: 9

积分
4030
发表于 2022-10-13 08:04:53 | 显示全部楼层
顶顶更健康
回复 支持 反对

使用道具 举报

2

主题

1464

帖子

4414

积分

4K家园VIP

Rank: 9Rank: 9Rank: 9

积分
4414
发表于 2022-10-13 10:24:28 | 显示全部楼层
4K家园资源不错,前排支持
回复 支持 反对

使用道具 举报

主题

帖子

12

积分

新手上路

Rank: 1

积分
12
发表于 2022-10-13 10:32:46 来自手机 | 显示全部楼层
666666666666666666
回复 支持 反对

使用道具 举报

2

主题

1249

帖子

3762

积分

4K家园VIP

Rank: 9Rank: 9Rank: 9

积分
3762
发表于 2022-10-13 21:08:49 | 显示全部楼层
有4K版卡,下个看下
回复 支持 反对

使用道具 举报

您需要登录后才可以回帖 登录 | 立即注册

本版积分规则

精彩图文
Archiver|手机版|TAG|Sitemap|新帖|专题|联系我们:邮箱: 4kjia.com@gmail.com   

4k家园   ©2019