2022 Seulgi(红色天鹅绒)-28个理由 [2160P/MP4/2.47GB]

  [复制链接]

主题

帖子

0

积分

超级版主

Rank: 8Rank: 8

积分
0
 楼主| 发表于 2022-10-12 21:08:03 | 显示全部楼层 |阅读模式
本帖最后由 叽里呱啦 于 2022-10-12 21:09 编辑

Seulgi (Red Velvet) - 28 Reasons.mp4_20221012_205338.739.jpg Seulgi (Red Velvet) - 28 Reasons.mp4_20221012_205356.289.jpg Seulgi (Red Velvet) - 28 Reasons.mp4_20221012_205436.593.jpg Seulgi (Red Velvet) - 28 Reasons.mp4_20221012_205449.513.jpg Seulgi (Red Velvet) - 28 Reasons.mp4_20221012_205511.833.jpg Seulgi (Red Velvet) - 28 Reasons.mp4_20221012_205535.777.jpg

General
Complete name                  : G:\qB下载\[4Kjia小组压制]2022 Seulgi(红色天鹅绒)-28个理由
Format                         : MPEG-4
Format profile                 : Base Media / Version 2
Codec ID                       : mp42 (mp42/mp41)
File size                      : 2.50 GiB
Duration                       : 3 min 46 s
Overall bit rate mode          : Variable
Overall bit rate               : 94.9 Mb/s
Encoded date                   : UTC 2022-10-04 08:05:49
Tagged date                    : UTC 2022-10-04 08:09:32
TIM                            : 00:00:00:00
TSC                            : 24000
TSZ                            : 1001

Video
ID                             : 1
Format                         : AVC
Format/Info                    : Advanced Video Codec
Format profile                 : Main@L5.1
Format settings                : CABAC / 2 Ref Frames
Format settings, CABAC         : Yes
Format settings, Reference fra : 2 frames
Format settings, GOP           : M=2, N=47
Codec ID                       : avc1
Codec ID/Info                  : Advanced Video Coding
Duration                       : 3 min 46 s
Bit rate mode                  : Variable
Bit rate                       : 94.5 Mb/s
Maximum bit rate               : 768 kb/s
Width                          : 3 840 pixels
Height                         : 2 160 pixels
Display aspect ratio           : 16:9
Frame rate mode                : Constant
Frame rate                     : 23.976 (24000/1001) FPS
Color space                    : YUV
Chroma subsampling             : 4:2:0
Bit depth                      : 8 bits
Scan type                      : Progressive
Bits/(Pixel*Frame)             : 0.475
Stream size                    : 2.49 GiB (100%)
Language                       : English
Encoded date                   : UTC 2022-10-04 08:05:49
Tagged date                    : UTC 2022-10-04 08:05:49
Color range                    : Limited
Color primaries                : BT.709
Transfer characteristics       : BT.709
Matrix coefficients            : BT.709
Codec configuration box        : avcC

Audio
ID                             : 2
Format                         : AAC LC
Format/Info                    : Advanced Audio Codec Low Complexity
Codec ID                       : mp4a-40-2
Duration                       : 3 min 46 s
Source duration                : 3 min 46 s
Bit rate mode                  : Variable
Bit rate                       : 317 kb/s
Maximum bit rate               : 487 kb/s
Channel(s)                     : 2 channels
Channel layout                 : L R
Sampling rate                  : 48.0 kHz
Frame rate                     : 46.875 FPS (1024 SPF)
Compression mode               : Lossy
Stream size                    : 8.56 MiB (0%)
Source stream size             : 8.56 MiB (0%)
Language                       : English
Encoded date                   : UTC 2022-10-04 08:05:51
Tagged date                    : UTC 2022-10-04 08:05:51

下载地址:
PS:小水管制作不易,下载后请保持做种姿势,谢谢!
游客,如果您要查看本帖隐藏内容请回复
提供2010-2022年本人多年来珍藏优质[4K、8K、16K(25-120fps)] 高品质韩国(女团)MV、各种演示片、测试片等4K韩国MV“珍藏版”视频硬盘有偿拷贝或网盘分享,最新4K视频每天更新中,需要的联系本楼主!





上一篇:[4K 欧美MV]奥利维亚·亚当斯-Dumb[2160P/MP4/420MB]
下一篇:艾薇儿·拉维尼-我是一个麻烦 (with YUNGBLUD) [2160P/MP4/565MB]
回复

使用道具 举报

3

主题

1388

帖子

4182

积分

4K家园VIP

Rank: 9Rank: 9Rank: 9

积分
4182
发表于 2022-10-12 21:08:09 | 显示全部楼层
看着好像不错
回复 支持 反对

使用道具 举报

主题

帖子

9

积分

新手上路

Rank: 1

积分
9
发表于 2022-10-13 05:51:11 | 显示全部楼层
韩国女团还是很养眼的
回复 支持 反对

使用道具 举报

主题

帖子

0

积分

新手上路

Rank: 1

积分
0
发表于 2022-10-13 08:30:44 | 显示全部楼层
好像不错谢谢
回复 支持 反对

使用道具 举报

主题

帖子

0

积分

新手上路

Rank: 1

积分
0
发表于 2022-10-13 09:40:13 | 显示全部楼层
养眼的韩国女团 真不错
回复 支持 反对

使用道具 举报

主题

帖子

13

积分

新手上路

Rank: 1

积分
13
发表于 2022-10-13 20:51:25 | 显示全部楼层
注册
回复

使用道具 举报

2

主题

1402

帖子

4230

积分

4K家园VIP

Rank: 9Rank: 9Rank: 9

积分
4230
发表于 2022-10-14 06:44:56 来自手机 | 显示全部楼层
非常好,顶一下
回复 支持 反对

使用道具 举报

0

主题

1392

帖子

4186

积分

4K家园VIP

Rank: 9Rank: 9Rank: 9

积分
4186
发表于 2022-10-14 06:52:58 | 显示全部楼层
垃圾
回复 支持 反对

使用道具 举报

主题

帖子

0

积分

新手上路

Rank: 1

积分
0
发表于 2022-10-14 08:43:02 | 显示全部楼层
非常好,顶一下
回复 支持 反对

使用道具 举报

1

主题

1409

帖子

4245

积分

4K家园VIP

Rank: 9Rank: 9Rank: 9

积分
4245
发表于 2022-10-15 11:04:23 | 显示全部楼层
站位支持
回复 支持 反对

使用道具 举报

您需要登录后才可以回帖 登录 | 立即注册

本版积分规则

精彩图文
Archiver|手机版|TAG|Sitemap|新帖|专题|联系我们:邮箱: 4kjia.com@gmail.com   

4k家园   ©2019