[4K电影] 疯狂店员3 [简繁中字] / Clerks III (2022) 4K高清版本下载

[复制链接]

主题

帖子

0

积分

超级版主

Rank: 8Rank: 8

积分
0
 楼主| 发表于 2022-10-13 21:54:43 | 显示全部楼层 |阅读模式
QQ图片20221013214655_副本.png

◎标  题 疯狂店员3
◎片  名 Clerks III
◎年  代 2022
◎产  地 美国
◎类  别 喜剧
◎语  言 英语
◎上映日期 2022-09-13(美国)
◎IMDb评分 7.4/10 from 2016 users 更新 : 2022-10-13
◎IMDb链接 https://www.imdb.com/title/tt11128440/
◎豆瓣评分 0/10 from 0 users
◎豆瓣链接 https://movie.douban.com/subject/34899682/
◎片  长 115分钟
◎导  演 凯文·史密斯 Kevin Smith
◎编  剧 凯文·史密斯 Kevin Smith
◎演  员 布莱恩·奥哈罗兰 Brian O'Halloran
       杰夫·安德森 Jeff Anderson
       特雷弗·费尔曼 Trevor Fehrman
       奥斯汀·扎祖尔 Austin Zajur
       杰森·缪斯 Jason Mewes
       玛丽琳·吉格洛尔蒂 Marilyn Ghigliotti
       罗莎里奥·道森 Rosario Dawson
       凯文·史密斯 Kevin Smith
       斯科特·斯拉普 Scott Schiaffo
       丽莎·汉普顿 Lisa Hampton

◎简  介

  在一次大规模心脏病发作后,Randal招募了他的朋友和同事Dante、Elias、Jay和Silent Bob,在一家便利店拍摄了一部电影,让他的生活永垂不朽。《办事员III》由布莱恩·奥哈洛兰、杰夫·安德森、特雷弗·费尔曼、奥斯汀·扎朱尔、杰森·梅维斯、玛丽琳·吉格里奥蒂、罗萨里奥·道森和凯文·史密斯主演。
Video
ID : 1
Format : HEVC
Format/Info : High Efficiency Video Coding
Format profile : Main 10@L5@High
HDR format : SMPTE ST 2086, HDR10 compatible
Codec ID : V_MPEGH/ISO/HEVC
Duration : 1 h 40 min
Bit rate : 24.1 Mb/s
Width : 3 832 pixels
Height : 2 016 pixels
Display aspect ratio : 1.901
Frame rate mode : Constant
Frame rate : 23.976 FPS
Color space : YUV
Chroma subsampling : 4:2:0 (Type 2)
Bit depth : 10 bits
Bits/(Pixel*Frame) : 0.130
Stream size : 16.9 GiB (98%)
Language : English
Default : Yes
Forced : No
Color range : Limited
Color primaries : BT.2020
Transfer characteristics : PQ
Matrix coefficients : BT.2020 non-constant
Mastering display color primaries : BT.2020
Mastering display luminance : min: 0.0001 cd/m2, max: 1000 cd/m2
Maximum Content Light Level : 785 cd/m2
Maximum Frame-Average Light Level : 77 cd/m2

Audio
ID : 2
Format : AC-3
Format/Info : Audio Coding 3
Commercial name : Dolby Digital
Codec ID : A_AC3
Duration : 1 h 40 min
Bit rate mode : Constant
Bit rate : 384 kb/s
Channel(s) : 6 channels
Channel layout : L R C LFE Ls Rs
Sampling rate : 48.0 kHz
Frame rate : 31.250 FPS (1536 SPF)
Compression mode : Lossy
Stream size : 275 MiB (2%)
Language : English
Service kind : Complete Main
Default : Yes
Forced : No

Text #1
ID : 3
Format : UTF-8
Codec ID : S_TEXT/UTF8
Codec ID/Info : UTF-8 Plain Text
Duration : 1 h 39 min
Bit rate : 103 b/s
Frame rate : 0.387 FPS
Count of elements : 2305
Stream size : 75.2 KiB (0%)
Title : SDH
Language : English
Default : No
Forced : No

Text #2
ID : 4
Format : UTF-8
Codec ID : S_TEXT/UTF8
Codec ID/Info : UTF-8 Plain Text
Duration : 1 h 38 min
Bit rate : 97 b/s
Frame rate : 0.368 FPS
Count of elements : 2182
Stream size : 70.8 KiB (0%)
Language : English
Default : No
Forced : No

Text #3
ID : 5
Format : UTF-8
Codec ID : S_TEXT/UTF8
Codec ID/Info : UTF-8 Plain Text
Duration : 1 h 38 min
Bit rate : 130 b/s
Frame rate : 0.300 FPS
Count of elements : 1781
Stream size : 94.3 KiB (0%)
Language : Arabic
Default : No
Forced : No

Text #4
ID : 6
Format : UTF-8
Codec ID : S_TEXT/UTF8
Codec ID/Info : UTF-8 Plain Text
Duration : 1 h 38 min
Bit rate : 78 b/s
Frame rate : 0.296 FPS
Count of elements : 1758
Stream size : 57.1 KiB (0%)
Language : Danish
Default : No
Forced : No

Text #5
ID : 7
Format : UTF-8
Codec ID : S_TEXT/UTF8
Codec ID/Info : UTF-8 Plain Text
Duration : 1 h 38 min
Bit rate : 83 b/s
Frame rate : 0.299 FPS
Count of elements : 1776
Stream size : 60.5 KiB (0%)
Language : Finnish
Default : No
Forced : No

Text #6
ID : 8
Format : UTF-8
Codec ID : S_TEXT/UTF8
Codec ID/Info : UTF-8 Plain Text
Duration : 1 h 38 min
Bit rate : 74 b/s
Frame rate : 0.255 FPS
Count of elements : 1512
Stream size : 54.0 KiB (0%)
Language : French
Default : No
Forced : No

Text #7
ID : 9
Format : UTF-8
Codec ID : S_TEXT/UTF8
Codec ID/Info : UTF-8 Plain Text
Duration : 1 h 38 min
Bit rate : 67 b/s
Frame rate : 0.270 FPS
Count of elements : 1606
Stream size : 48.7 KiB (0%)
Language : Japanese
Default : No
Forced : No

Text #8
ID : 10
Format : UTF-8
Codec ID : S_TEXT/UTF8
Codec ID/Info : UTF-8 Plain Text
Duration : 1 h 38 min
Bit rate : 87 b/s
Frame rate : 0.300 FPS
Count of elements : 1778
Stream size : 63.1 KiB (0%)
Language : Korean
Default : No
Forced : No

Text #9
ID : 11
Format : UTF-8
Codec ID : S_TEXT/UTF8
Codec ID/Info : UTF-8 Plain Text
Duration : 1 h 37 min
Bit rate : 83 b/s
Frame rate : 0.296 FPS
Count of elements : 1742
Stream size : 59.7 KiB (0%)
Language : Dutch
Default : No
Forced : No

Text #10
ID : 12
Format : UTF-8
Codec ID : S_TEXT/UTF8
Codec ID/Info : UTF-8 Plain Text
Duration : 1 h 38 min
Bit rate : 76 b/s
Frame rate : 0.299 FPS
Count of elements : 1776
Stream size : 55.3 KiB (0%)
Language : Norwegian
Default : No
Forced : No

Text #11
ID : 13
Format : UTF-8
Codec ID : S_TEXT/UTF8
Codec ID/Info : UTF-8 Plain Text
Duration : 1 h 38 min
Bit rate : 84 b/s
Frame rate : 0.299 FPS
Count of elements : 1777
Stream size : 61.1 KiB (0%)
Language : Polish
Default : No
Forced : No

Text #12
ID : 14
Format : UTF-8
Codec ID : S_TEXT/UTF8
Codec ID/Info : UTF-8 Plain Text
Duration : 1 h 38 min
Bit rate : 79 b/s
Frame rate : 0.299 FPS
Count of elements : 1773
Stream size : 57.9 KiB (0%)
Language : Portuguese
Default : No
Forced : No

Text #13
ID : 15
Format : UTF-8
Codec ID : S_TEXT/UTF8
Codec ID/Info : UTF-8 Plain Text
Duration : 1 h 38 min
Bit rate : 85 b/s
Frame rate : 0.299 FPS
Count of elements : 1778
Stream size : 62.0 KiB (0%)
Language : Swedish
Default : No
Forced : No

Text #14
ID : 16
Format : UTF-8
Codec ID : S_TEXT/UTF8
Codec ID/Info : UTF-8 Plain Text
Duration : 1 h 38 min
Bit rate : 200 b/s
Frame rate : 0.300 FPS
Count of elements : 1781
Stream size : 145 KiB (0%)
Language : Thai
Default : No
Forced : No

Text #15
ID : 17
Format : UTF-8
Codec ID : S_TEXT/UTF8
Codec ID/Info : UTF-8 Plain Text
Duration : 1 h 38 min
Bit rate : 79 b/s
Frame rate : 0.301 FPS
Count of elements : 1771
Stream size : 57.1 KiB (0%)
Language : Turkish
Default : No
Forced : No

Text #16
ID : 18
Format : UTF-8
Codec ID : S_TEXT/UTF8
Codec ID/Info : UTF-8 Plain Text
Duration : 1 h 38 min
Bit rate : 108 b/s
Frame rate : 0.300 FPS
Count of elements : 1781
Stream size : 78.9 KiB (0%)
Language : Vietnamese
Default : No
Forced : No

Text #17
ID : 19
Format : UTF-8
Codec ID : S_TEXT/UTF8
Codec ID/Info : UTF-8 Plain Text
Duration : 1 h 38 min
Bit rate : 76 b/s
Frame rate : 0.300 FPS
Count of elements : 1779
Stream size : 55.5 KiB (0%)
Title : 中文简体
Language : Chinese
Default : No
Forced : No

Text #18
ID : 20
Format : UTF-8
Codec ID : S_TEXT/UTF8
Codec ID/Info : UTF-8 Plain Text
Duration : 1 h 38 min
Bit rate : 79 b/s
Frame rate : 0.300 FPS
Count of elements : 1781
Stream size : 57.6 KiB (0%)
Title : 中文繁体
Language : Chinese
Default : No
Forced : No


Menu
00:00:00.000 : en:Chapter 01
00:05:21.154 : en:Chapter 02
00:16:29.489 : en:Chapter 03
00:26:14.908 : en:Chapter 04
00:38:10.540 : en:Chapter 05
00:51:31.591 : en:Chapter 06
01:03:09.289 : en:Chapter 07
01:12:40.485 : en:Chapter 08
01:22:54.015 : en:Chapter 09
01:34:36.509 : en:Chapter 10

为了更好体验下载、推荐使用qBittorrent、uTorrent、BitComet等下载软件,有条件的推荐115或会员下载软件!

下载地址:
游客,如果您要查看本帖隐藏内容请回复

游客,如果您要查看本帖隐藏内容请回复





上一篇:独行月球 [杜比视界版本] /Moon.Man(2022) 4K高清版本下载
下一篇:月光光心慌慌:终结 / Halloween Ends (2022) 4K高清版本下载
回复

使用道具 举报

5

主题

1413

帖子

4265

积分

4K家园VIP

Rank: 9Rank: 9Rank: 9

积分
4265
发表于 2022-10-13 21:54:47 | 显示全部楼层
有空一起交流一下
回复 支持 反对

使用道具 举报

51

主题

1626

帖子

4694

积分

4K家园VIP

Rank: 9Rank: 9Rank: 9

积分
4694
发表于 2022-10-13 21:54:47 | 显示全部楼层
支持,赞一个
回复 支持 反对

使用道具 举报

主题

帖子

22

积分

新手上路

Rank: 1

积分
22
发表于 2022-10-13 22:47:39 | 显示全部楼层
非常好!!!
回复

使用道具 举报

0

主题

1365

帖子

4111

积分

4K家园VIP

Rank: 9Rank: 9Rank: 9

积分
4111
发表于 2022-10-14 10:15:52 | 显示全部楼层
体验下4K版的
回复 支持 反对

使用道具 举报

2

主题

1466

帖子

4371

积分

4K家园VIP

Rank: 9Rank: 9Rank: 9

积分
4371
发表于 2022-10-14 21:39:45 | 显示全部楼层
锄禾日当午,发帖真辛苦。谁知坛中餐,帖帖皆辛苦!
回复 支持 反对

使用道具 举报

51

主题

1459

帖子

4209

积分

4K家园VIP

Rank: 9Rank: 9Rank: 9

积分
4209
发表于 2022-10-16 09:51:29 | 显示全部楼层
前排,哇咔咔
回复 支持 反对

使用道具 举报

51

主题

1578

帖子

4540

积分

4K家园VIP

Rank: 9Rank: 9Rank: 9

积分
4540
发表于 2022-11-9 20:08:08 | 显示全部楼层
为毛老子总也抢不到沙发?!!
回复 支持 反对

使用道具 举报

5

主题

1413

帖子

4265

积分

4K家园VIP

Rank: 9Rank: 9Rank: 9

积分
4265
发表于 2022-11-10 16:23:19 来自手机 | 显示全部楼层
纯粹路过,没任何兴趣,仅仅是看在老用户份上回复一下
回复 支持 反对

使用道具 举报

您需要登录后才可以回帖 登录 | 立即注册

本版积分规则

精彩图文
Archiver|手机版|TAG|Sitemap|新帖|专题|联系我们:邮箱: 4kjia.com@gmail.com   

4k家园   ©2019