[4K电影] 月光光心慌慌:终结 / Halloween Ends (2022) 4K高清版本下载

[复制链接]

主题

帖子

0

积分

超级版主

Rank: 8Rank: 8

积分
0
 楼主| 发表于 2022-10-14 12:15:17 | 显示全部楼层 |阅读模式
QQ图片20221014115851_副本.png

◎译  名 月光光心慌慌:终结 / 月光光新慌慌:万圣结(台) / 了结月光光(港) / 万圣节终结
◎片  名 Halloween Ends
◎年  代 2022
◎产  地 美国
◎类  别 惊悚 / 恐怖
◎语  言 英语
◎上映日期 2022-10-14(美国/美国网络)
◎IMDb评分 5.6/10 from 1016 users Updated : 2022-10-14
◎IMDb链接 https://www.imdb.com/title/tt10665342/
◎豆瓣评分 0/10 from 0 users
◎豆瓣链接 https://movie.douban.com/subject/34626281/
◎片  长 110 分钟
◎导  演 大卫·戈登·格林 David Gordon Green
◎编  剧 保罗·布莱德·罗根 Paul Brad Logan / 克里斯·伯尼尔 Chris Bernier / 丹尼·麦克布莱德 Danny McBride / 约翰·卡朋特 John Carpenter / 黛布拉·希尔 Debra Hill
◎主  演 杰米·李·柯蒂斯 Jamie Lee Curtis
                   安迪·马蒂切克 Andi Matichak
                   詹姆斯·裘德·柯特尼 James Jude Courtney
                   罗汉·坎贝尔 Rohan Campbell
                   威尔·帕顿 Will Patton
                   凯尔·理查兹 Kyle Richards
                   尼克·卡斯特尔 Nick Castle
                   斯蒂芬妮·麦金太尔 Stephanie McIntyre
                   艾米莉·布林克斯 Emily Brinks
                   迪伦·贝利斯 Dillon Belisle
                   德里克·莱蒙Derrick Lemmon
                   约瑟夫·韦伯 Joseph D. Webb
                   道恩·拉斯基 Dawn Lasusky
                   威廉·布鲁克斯·佩雷斯 William Brooks Perez
                   尼克·劳伦斯 Nick Lawrence
                   大卫·古鲁 David Gurule


◎简  介

        “这是洛莉·史特罗德的最后一搏。”
  45年后,影史最受好评与最受尊崇恐怖片电影系列,即将迎来史诗般的惊惧结局,洛莉史特罗德将与恶灵化身麦克·迈尔斯,展开一场最终的生死搏斗,这将会是一场史无前例的终极大战,他们只有一个人能够存活。
  《月光光新慌慌:万圣杀》一片中发生恐怖事件的四年后,洛莉(杰米·李·柯蒂斯 饰)和她的外孙女爱丽森(安迪·马蒂切克 饰)住在一起,并且正在完成她的回忆录。杀人魔麦克迈尔斯自从上次大开杀戒之后就消失无踪,而洛莉这几十年来一直活在麦克·迈尔斯的恐怖阴影下,她受到的心理创伤以及报复心态也左右了她的人生,但是她决定放下长久以来的恐惧和愤怒,终于学会拥抱人生、享受生活。但是当一名年轻男子柯瑞·康宁汉(罗汉·坎贝尔 饰)遭到指控杀害他当保姆的一名男童时,就引发了一连串的暴力和恐怖事件,迫使洛莉和她无法掌控的邪恶力量展开一场终极大战,试图永远消灭麦克·迈尔斯这个恶灵。

Video
ID : 1
Format : HEVC
Format/Info : High Efficiency Video Coding
Format profile : Main@L5@Main
Codec ID : V_MPEGH/ISO/HEVC
Duration : 1 h 50 min
Bit rate : 15.0 Mb/s
Width : 3 840 pixels
Height : 2 160 pixels
Display aspect ratio : 16:9
Frame rate mode : Constant
Frame rate : 23.976 (24000/1001) FPS
Color space : YUV
Chroma subsampling : 4:2:0
Bit depth : 8 bits
Bits/(Pixel*Frame) : 0.075
Stream size : 11.6 GiB (99%)
Writing library : x265 3.2.1+1-b5c86a64bbbe:[Linux][GCC 7.5.0][64 bit] 8bit+10bit+12bit
Encoding settings : cpuid=1111039 / frame-threads=6 / wpp / no-pmode / no-pme / no-psnr / no-ssim / log-level=2 / input-csp=1 / input-res=3840x2160 / interlace=0 / total-frames=0 / level-idc=0 / high-tier=1 / uhd-bd=0 / ref=3 / no-allow-non-conformance / repeat-headers / annexb / no-aud / no-hrd / info / hash=0 / no-temporal-layers / no-open-gop / min-keyint=1 / keyint=48 / gop-lookahead=0 / bframes=4 / b-adapt=2 / b-pyramid / bframe-bias=0 / rc-lookahead=20 / lookahead-slices=8 / scenecut=0 / radl=0 / no-splice / no-intra-refresh / ctu=64 / min-cu-size=8 / no-rect / no-amp / max-tu-size=32 / tu-inter-depth=1 / tu-intra-depth=1 / limit-tu=0 / rdoq-level=0 / dynamic-rd=0.00 / no-ssim-rd / signhide / no-tskip / nr-intra=0 / nr-inter=0 / no-constrained-intra / strong-intra-smoothing / max-merge=3 / limit-refs=1 / no-limit-modes / me=1 / subme=2 / merange=57 / temporal-mvp / no-hme / weightp / no-weightb / no-analyze-src-pics / deblock=0:0 / sao / no-sao-non-deblock / rd=3 / selective-sao=4 / early-skip / rskip / no-fast-intra / no-tskip-fast / no-cu-lossless / b-intra / no-splitrd-skip / rdpenalty=0 / psy-rd=2.00 / psy-rdoq=0.00 / no-rd-refine / no-lossless / cbqpoffs=0 / crqpoffs=0 / rc=abr / bitrate=15000 / qcomp=0.60 / qpstep=4 / stats-write=0 / stats-read=2 / cplxblur=20.0 / qblur=0.5 / vbv-maxrate=22500 / vbv-bufsize=22500 / vbv-init=1.0 / ipratio=1.40 / pbratio=1.30 / aq-mode=2 / aq-strength=1.00 / cutree / zone-count=0 / no-strict-cbr / qg-size=32 / no-rc-grain / qpmax=69 / qpmin=0 / no-const-vbv / sar=1 / overscan=0 / videoformat=5 / range=0 / colorprim=2 / transfer=2 / colormatrix=1 / chromaloc=0 / display-window=0 / cll=0,0 / min-luma=0 / max-luma=255 / log2-max-poc-lsb=8 / vui-timing-info / vui-hrd-info / slices=1 / no-opt-qp-pps / no-opt-ref-list-length-pps / no-multi-pass-opt-rps / scenecut-bias=0.05 / no-opt-cu-delta-qp / no-aq-motion / no-hdr / no-hdr-opt / no-dhdr10-opt / no-idr-recovery-sei / analysis-reuse-level=5 / scale-factor=0 / refine-intra=0 / refine-inter=0 / refine-mv=1 / refine-ctu-distortion=0 / no-limit-sao / ctu-info=0 / no-lowpass-dct / refine-analysis-type=0 / copy-pic=1 / max-ausize-factor=1.0 / no-dynamic-refine / no-single-sei / no-hevc-aq / no-svt / no-field / qp-adaptation-range=1.00
Language : English
Default : Yes
Forced : No
Color range : Limited
Matrix coefficients : BT.709

Audio
ID : 2
Format : E-AC-3
Format/Info : Enhanced AC-3
Commercial name : Dolby Digital Plus
Codec ID : A_EAC3
Duration : 1 h 50 min
Bit rate mode : Constant
Bit rate : 192 kb/s
Channel(s) : 6 channels
Channel layout : L R C LFE Ls Rs
Sampling rate : 48.0 kHz
Frame rate : 31.250 FPS (1536 SPF)
Compression mode : Lossy
Stream size : 152 MiB (1%)
Language : English
Service kind : Complete Main
Default : Yes
Forced : No

Text #1
ID : 3
Format : UTF-8
Codec ID : S_TEXT/UTF8
Codec ID/Info : UTF-8 Plain Text
Duration : 1 h 46 min
Bit rate : 49 b/s
Frame rate : 0.202 FPS
Count of elements : 1290
Stream size : 38.3 KiB (0%)
Language : English
Default : No
Forced : No

Text #2
ID : 4
Format : UTF-8
Codec ID : S_TEXT/UTF8
Codec ID/Info : UTF-8 Plain Text
Duration : 1 h 50 min
Bit rate : 62 b/s
Frame rate : 0.272 FPS
Count of elements : 1802
Stream size : 50.3 KiB (0%)
Title : SDH
Language : English
Default : No
Forced : No

Text #3
ID : 5
Format : UTF-8
Codec ID : S_TEXT/UTF8
Codec ID/Info : UTF-8 Plain Text
Duration : 1 h 50 min
Bit rate : 54 b/s
Frame rate : 0.229 FPS
Count of elements : 1520
Stream size : 44.5 KiB (0%)
Language : Spanish
Default : No
Forced : No

为了更好体验下载、推荐使用qBittorrent、uTorrent、BitComet等下载软件,有条件的推荐115或会员下载软件!

下载地址:


游客,如果您要查看本帖隐藏内容请回复






上一篇:疯狂店员3 [简繁中字] / Clerks III (2022) 4K高清版本下载
下一篇:意外杀手2 / Accident Man 2 (2022) 4K高清版本下载
回复

使用道具 举报

1

主题

1393

帖子

4207

积分

4K家园VIP

Rank: 9Rank: 9Rank: 9

积分
4207
发表于 2022-10-14 12:15:21 | 显示全部楼层
楼猪V5啊
回复 支持 反对

使用道具 举报

主题

帖子

0

积分

4K家园VIP

Rank: 9Rank: 9Rank: 9

积分
0
发表于 2022-10-14 15:00:00 | 显示全部楼层
太好啦&萬分感謝版主的無私發佈分享%
回复 支持 反对

使用道具 举报

主题

帖子

15

积分

新手上路

Rank: 1

积分
15
发表于 2022-10-14 17:48:08 | 显示全部楼层
以前看真的很恐怖现在有点麻木路
回复 支持 反对

使用道具 举报

主题

帖子

25

积分

新手上路

Rank: 1

积分
25
发表于 2022-10-14 23:25:38 | 显示全部楼层
66666666666666666
回复 支持 反对

使用道具 举报

主题

帖子

9

积分

新手上路

Rank: 1

积分
9
发表于 2022-10-16 01:01:08 来自手机 | 显示全部楼层
这个歌可以
回复 支持 反对

使用道具 举报

1

主题

1441

帖子

4177

积分

4K家园VIP

Rank: 9Rank: 9Rank: 9

积分
4177
发表于 2022-10-16 13:14:53 来自手机 | 显示全部楼层
佩服佩服!
回复 支持 反对

使用道具 举报

2

主题

1614

帖子

4414

积分

4K家园VIP

Rank: 9Rank: 9Rank: 9

积分
4414
发表于 2022-10-17 20:01:06 | 显示全部楼层
差评
回复 支持 反对

使用道具 举报

0

主题

2

帖子

370

积分

4K家园VIP

Rank: 9Rank: 9Rank: 9

积分
370
发表于 2022-10-17 20:31:25 | 显示全部楼层
好好好好好好好好好好好
回复 支持 反对

使用道具 举报

主题

帖子

0

积分

4K家园VIP

Rank: 9Rank: 9Rank: 9

积分
0
发表于 2022-10-18 05:43:31 | 显示全部楼层
Nicenicenice
回复 支持 反对

使用道具 举报

您需要登录后才可以回帖 登录 | 立即注册

本版积分规则

精彩图文
Archiver|手机版|TAG|Sitemap|新帖|专题|联系我们:邮箱: 4kjia.com@gmail.com   

4k家园   ©2019