[4K电影] 意外杀手2 / Accident Man 2 (2022) 4K高清版本下载

[复制链接]

主题

帖子

0

积分

超级版主

Rank: 8Rank: 8

积分
0
 楼主| 发表于 2022-10-14 20:07:32 | 显示全部楼层 |阅读模式
本帖最后由 最爱4K哟 于 2022-10-14 20:59 编辑

QQ图片20221014205044_副本.png

◎标  题 意外杀手2
◎译  名 意外杀手2:杀手假期
◎片  名 Accident Man 2
◎年  代 2022
◎产  地 英国
◎类  别 喜剧 / 动作 / 犯罪
◎语  言 英语
◎上映日期 2022-10-14(美国)
◎IMDb评分 0/10 from 0 users
◎IMDb链接 https://www.imdb.com/title/tt9669176/
◎豆瓣评分 0/10 from 0 users
◎豆瓣链接 https://movie.douban.com/subject/33381152/
◎片  长 96分钟
◎编  剧 斯科特·阿金斯 Scott Adkins / 斯图·斯莫尔 Stu Small
◎演  员 斯科特·阿金斯 Scott Adkins
       雷·史蒂文森 Ray Stevenson
       莎拉·费希恩 Zara Phythian
       派瑞·本森 Perry Benson
       博·福勒 Beau Fowler
       费萨尔·穆罕默德 Faisal Mohammed


◎简  介


  麦克·福隆(斯科特·阿金斯饰),号称意外杀手的他,是位冷血杀手。就他从事的职业来讲,他是顶尖的,无论是条理多样的刺杀技巧,还是瞒天过海躲过警察视线,他的每次任务都使雇主满意高兴。但是有一天他挚爱的人却卷入了伦敦的地下杀手世界,并惨遭自己同组织的人 杀害。而福隆不得不打破自己长久以来井然有序,条理安排的生活,开始向实施这一切的人展开复仇。
Video
ID : 1
Format : HEVC
Format/Info : High Efficiency Video Coding
Format profile : Main 10@L5@High
Codec ID : V_MPEGH/ISO/HEVC
Duration : 1 h 37 min
Bit rate : 12.0 Mb/s
Width : 3 836 pixels
Height : 1 604 pixels
Display aspect ratio : 2.40:1
Frame rate mode : Constant
Frame rate : 23.976 FPS
Color space : YUV
Chroma subsampling : 4:2:0
Bit depth : 10 bits
Bits/(Pixel*Frame) : 0.081
Stream size : 8.14 GiB (97%)
Language : English
Default : Yes
Forced : No
Color range : Limited
Color primaries : BT.709
Transfer characteristics : BT.709
Matrix coefficients : BT.709

Audio
ID : 2
Format : AC-3
Format/Info : Audio Coding 3
Commercial name : Dolby Digital
Codec ID : A_AC3
Duration : 1 h 37 min
Bit rate mode : Constant
Bit rate : 384 kb/s
Channel(s) : 6 channels
Channel layout : L R C LFE Ls Rs
Sampling rate : 48.0 kHz
Frame rate : 31.250 FPS (1536 SPF)
Compression mode : Lossy
Stream size : 267 MiB (3%)
Language : English
Service kind : Complete Main
Default : Yes
Forced : No

Text #1
ID : 3
Format : UTF-8
Codec ID : S_TEXT/UTF8
Codec ID/Info : UTF-8 Plain Text
Duration : 1 h 36 min
Bit rate : 88 b/s
Frame rate : 0.326 FPS
Count of elements : 1883
Stream size : 62.5 KiB (0%)
Title : SDH
Language : English
Default : No
Forced : No

Text #2
ID : 4
Format : UTF-8
Codec ID : S_TEXT/UTF8
Codec ID/Info : UTF-8 Plain Text
Duration : 1 h 36 min
Bit rate : 76 b/s
Frame rate : 0.255 FPS
Count of elements : 1469
Stream size : 53.5 KiB (0%)
Language : English
Default : No
Forced : No

Menu
00:00:00.000 : en:Chapter 1
00:08:52.574 : en:Chapter 2
00:18:38.493 : en:Chapter 3
00:27:02.914 : en:Chapter 4
00:39:58.940 : en:Chapter 5
00:50:26.192 : en:Chapter 6
01:03:27.182 : en:Chapter 7
01:15:22.856 : en:Chapter 8
01:27:19.698 : en:Chapter 9
01:32:18.580 : en:Chapter 10


为了更好体验下载、推荐使用qBittorrent、uTorrent、BitComet等下载软件,有条件的推荐115或会员下载软件!

下载地址:

游客,如果您要查看本帖隐藏内容请回复







上一篇:月光光心慌慌:终结 / Halloween Ends (2022) 4K高清版本下载
下一篇:老人 / Old Man (2022) 4K高清版本下载
回复

使用道具 举报

2

主题

1460

帖子

4232

积分

4K家园VIP

Rank: 9Rank: 9Rank: 9

积分
4232
发表于 2022-10-14 20:07:36 | 显示全部楼层
这个资源我记得是一套的,楼主还有没有
回复 支持 反对

使用道具 举报

0

主题

12

帖子

101

积分

新手上路

Rank: 1

积分
101
发表于 2022-10-14 23:59:37 | 显示全部楼层
111111111111111111111111111111111111111111
回复 支持 反对

使用道具 举报

主题

帖子

10

积分

新手上路

Rank: 1

积分
10
发表于 2022-10-15 09:38:27 | 显示全部楼层
dsafdsafasfdsafdsafdsa
回复 支持 反对

使用道具 举报

3

主题

1345

帖子

4056

积分

4K家园VIP

Rank: 9Rank: 9Rank: 9

积分
4056
发表于 2022-10-15 11:22:09 | 显示全部楼层
4K家园资源不错,前排支持
回复 支持 反对

使用道具 举报

46

主题

1553

帖子

4503

积分

4K家园VIP

Rank: 9Rank: 9Rank: 9

积分
4503
发表于 2022-10-15 12:23:36 | 显示全部楼层
看起来好像不错的样子
回复 支持 反对

使用道具 举报

48

主题

1547

帖子

4459

积分

4K家园VIP

Rank: 9Rank: 9Rank: 9

积分
4459
发表于 2022-10-15 20:30:22 | 显示全部楼层
感谢分享
回复 支持 反对

使用道具 举报

54

主题

1612

帖子

4607

积分

4K家园VIP

Rank: 9Rank: 9Rank: 9

积分
4607
发表于 2022-10-16 20:38:36 | 显示全部楼层
回复 支持 反对

使用道具 举报

主题

帖子

19

积分

新手上路

Rank: 1

积分
19
发表于 2022-10-18 21:29:04 | 显示全部楼层
顶顶顶顶顶顶顶顶顶顶顶顶顶顶顶顶顶顶顶顶顶顶顶顶顶顶顶顶顶顶顶顶顶顶顶顶顶顶顶顶顶顶顶顶顶顶顶顶顶顶顶顶顶顶顶顶顶顶顶顶顶顶顶顶顶顶顶顶顶顶顶顶顶顶顶顶顶顶顶顶顶顶顶顶顶顶顶顶顶顶顶顶顶顶顶顶顶顶顶顶顶顶顶顶顶顶顶顶顶顶顶顶顶顶顶顶顶顶顶顶顶顶顶顶顶顶顶顶顶顶顶顶
回复 支持 反对

使用道具 举报

主题

帖子

10

积分

新手上路

Rank: 1

积分
10
发表于 2022-10-19 15:19:39 | 显示全部楼层
4K家园资源不错,支持支持
回复 支持 反对

使用道具 举报

您需要登录后才可以回帖 登录 | 立即注册

本版积分规则

精彩图文
Archiver|手机版|TAG|Sitemap|新帖|专题|联系我们:邮箱: 4kjia.com@gmail.com   

4k家园   ©2019