[4K电影] 老人 / Old Man (2022) 4K高清版本下载

[复制链接]

主题

帖子

0

积分

超级版主

Rank: 8Rank: 8

积分
0
 楼主| 发表于 2022-10-14 20:13:47 | 显示全部楼层 |阅读模式
本帖最后由 最爱4K哟 于 2022-10-14 20:59 编辑

QQ图片20221014205247_副本.png

◎标  题 老人
◎片  名 Old Man
◎年  代 2022
◎产  地 美国
◎类  别 惊悚
◎语  言 英语
◎上映日期 2022-10-14(美国网络)
◎IMDb评分 0/10 from 0 users
◎IMDb链接 https://www.imdb.com/title/tt13456976/
◎豆瓣评分 0/10 from 0 users
◎豆瓣链接 https://movie.douban.com/subject/35251390/
◎片  长 97分钟
◎导  演 拉齐·马凯 Lucky McKee
◎编  剧 乔尔·韦奇 Joel Veach
◎演  员 史蒂芬·朗 Stephen Lang
       马克·塞特 Marc Senter
       帕奇·德拉奇 Patch Darragh
                   莉安娜·赖特马克 Liana Wright-Mark


◎简  介


  史蒂芬·朗将主演动作惊悚片[老人](Old Man,暂译)。拉齐·马凯([五月魔女])执导,Joel Veach操刀剧本,卡司还包括马克·塞特([红白蓝])。影片讲述了一个迷路的徒步旅行者(塞特饰)偶然发现了一个古怪而隐居的老人(朗饰)的小屋。两人一开始亲切的对话很快就变成了危险的对话,因为很明显,他们中的一个或两个人可能隐藏着一个可怕的秘密。该片将于明年1月在纽约开拍。

Video
ID : 1
Format : HEVC
Format/Info : High Efficiency Video Coding
Format profile : Main 10@L5@High
Codec ID : V_MPEGH/ISO/HEVC
Duration : 1 h 37 min
Bit rate : 12.1 Mb/s
Width : 3 836 pixels
Height : 2 072 pixels
Display aspect ratio : 1.85:1
Frame rate mode : Constant
Frame rate : 23.976 FPS
Color space : YUV
Chroma subsampling : 4:2:0
Bit depth : 10 bits
Bits/(Pixel*Frame) : 0.063
Stream size : 8.24 GiB (97%)
Language : English
Default : Yes
Forced : No
Color range : Limited
Color primaries : BT.709
Transfer characteristics : BT.709
Matrix coefficients : BT.709

Audio
ID : 2
Format : AC-3
Format/Info : Audio Coding 3
Commercial name : Dolby Digital
Codec ID : A_AC3
Duration : 1 h 37 min
Bit rate mode : Constant
Bit rate : 384 kb/s
Channel(s) : 6 channels
Channel layout : L R C LFE Ls Rs
Sampling rate : 48.0 kHz
Frame rate : 31.250 FPS (1536 SPF)
Compression mode : Lossy
Stream size : 268 MiB (3%)
Language : English
Service kind : Complete Main
Default : Yes
Forced : No

Text #1
ID : 3
Format : UTF-8
Codec ID : S_TEXT/UTF8
Codec ID/Info : UTF-8 Plain Text
Duration : 1 h 36 min
Bit rate : 59 b/s
Frame rate : 0.265 FPS
Count of elements : 1532
Stream size : 41.8 KiB (0%)
Title : SDH
Language : English
Default : No
Forced : No

Text #2
ID : 4
Format : UTF-8
Codec ID : S_TEXT/UTF8
Codec ID/Info : UTF-8 Plain Text
Duration : 1 h 33 min
Bit rate : 56 b/s
Frame rate : 0.251 FPS
Count of elements : 1403
Stream size : 38.7 KiB (0%)
Language : English
Default : No
Forced : No

Text #3
ID : 5
Format : UTF-8
Codec ID : S_TEXT/UTF8
Codec ID/Info : UTF-8 Plain Text
Duration : 1 h 35 min
Bit rate : 45 b/s
Frame rate : 0.211 FPS
Count of elements : 1213
Stream size : 31.8 KiB (0%)
Title : Latin American
Language : Spanish
Default : No
Forced : No

Menu
00:00:00.000 : en:Chapter 01
00:10:23.289 : en:Chapter 02
00:23:21.234 : en:Chapter 03
00:31:07.325 : en:Chapter 04
00:38:31.102 : en:Chapter 05
00:52:47.334 : en:Chapter 06
01:01:57.509 : en:Chapter 07
01:12:03.531 : en:Chapter 08
01:20:39.255 : en:Chapter 09
01:33:21.601 : en:Chapter 10

为了更好体验下载、推荐使用qBittorrent、uTorrent、BitComet等下载软件,有条件的推荐115或会员下载软件!

下载地址:


游客,如果您要查看本帖隐藏内容请回复





上一篇:意外杀手2 / Accident Man 2 (2022) 4K高清版本下载
下一篇:罗莎琳 [简繁粤中字] / Rosaline (2022) 4K高清版本下载
回复

使用道具 举报

4

主题

1419

帖子

4268

积分

4K家园VIP

Rank: 9Rank: 9Rank: 9

积分
4268
发表于 2022-10-14 20:13:53 来自手机 | 显示全部楼层
垃圾内容,路过为证。
回复 支持 反对

使用道具 举报

0

主题

1365

帖子

4111

积分

4K家园VIP

Rank: 9Rank: 9Rank: 9

积分
4111
发表于 2022-10-14 20:13:53 | 显示全部楼层
楼下的接上
回复 支持 反对

使用道具 举报

40

主题

1598

帖子

4584

积分

4K家园VIP

Rank: 9Rank: 9Rank: 9

积分
4584
发表于 2022-10-16 20:26:54 | 显示全部楼层
不错 支持下
回复 支持 反对

使用道具 举报

1

主题

1296

帖子

3906

积分

4K家园VIP

Rank: 9Rank: 9Rank: 9

积分
3906
发表于 2022-10-18 10:25:02 | 显示全部楼层
为了三千积分!
回复 支持 反对

使用道具 举报

30

主题

1337

帖子

4033

积分

4K家园VIP

Rank: 9Rank: 9Rank: 9

积分
4033
发表于 2022-10-22 15:40:08 | 显示全部楼层
出4K版啦,下个看看
回复 支持 反对

使用道具 举报

您需要登录后才可以回帖 登录 | 立即注册

本版积分规则

精彩图文
Archiver|手机版|TAG|Sitemap|新帖|专题|联系我们:邮箱: 4kjia.com@gmail.com   

4k家园   ©2019