[4K电影] 罗莎琳 [简繁粤中字] / Rosaline (2022) 4K高清版本下载

[复制链接]

主题

帖子

0

积分

超级版主

Rank: 8Rank: 8

积分
0
 楼主| 发表于 2022-10-14 20:22:50 | 显示全部楼层 |阅读模式
本帖最后由 最爱4K哟 于 2022-10-14 21:01 编辑

QQ图片20221014205142_副本.png

◎标  题 罗莎琳
◎片  名 Rosaline
◎年  代 2022
◎产  地 美国
◎类  别 喜剧 / 爱情
◎语  言 英语
◎上映日期 2022-10-14(美国网络)
◎IMDb评分 5.4/10 from 23 users 更新 : 2022-10-14
◎IMDb链接 https://www.imdb.com/title/tt1777606/
◎豆瓣评分 0/10 from 0 users
◎豆瓣链接 https://movie.douban.com/subject/21349331/
◎片  长 95分钟
◎导  演 凯伦·梅恩 Karen Maine
◎编  剧 斯科特·纽斯塔德 Scott Neustadter / 威廉·莎士比亚 William Shakespeare / 迈克尔·H·韦伯 Michael H. Weber
◎演  员 凯特琳·德弗 Kaitlyn Dever
       伊莎贝拉·莫奈 Isabela Moner
       凯尔·艾伦 Kyle Allen
       明妮·德里弗 Minnie Driver
       克里斯托弗·麦克唐纳 Christopher McDonald
       布莱德利·惠特福德 Bradley Whitford
       尼科·希拉加 Nico Hiraga
       肖恩·蒂尔 Sean Teale
       肖恩·利维 Shawn Levy
       米切尔·特拉弗斯 Mitchell Travers


◎简  介


  影片通过朱丽叶(伊莎贝拉·默塞德 饰)的表妹罗莎琳(凯特琳·德弗 饰)的双眼看到这“有史以来最著名的爱情故事”,罗莎琳是一位敏锐,但理想主义的年轻女性,且她恰好是罗密欧(凯尔·艾伦 饰)最近的一位前任。一开始她试图破坏这段著名的浪漫爱情,并赢回她的男人,但随着时间推移则成为了她的自我发现旅程,她最终致力于帮助这对恋人重新团聚。

Video
ID : 1
Format : HEVC
Format/Info : High Efficiency Video Coding
Format profile : Main 10@L5@High
HDR format : Dolby Vision, Version 1.0, dvhe.05.06, BL+RPU
Codec ID : dvhe
Codec ID/Info : High Efficiency Video Coding with Dolby Vision
Duration : 1 h 35 min
Bit rate : 15.7 Mb/s
Width : 3 840 pixels
Height : 2 160 pixels
Display aspect ratio : 16:9
Frame rate mode : Constant
Frame rate : 24.000 FPS
Color space : YUV
Chroma subsampling : 4:2:0
Bit depth : 10 bits
Bits/(Pixel*Frame) : 0.079
Stream size : 10.5 GiB (95%)
Default : Yes
Alternate group : 1
Encoded date : UTC 2022-10-14 07:24:36
Tagged date : UTC 2022-10-14 07:26:53
Color range : Full
Codec configuration box : hvcC+dvcC

Audio
ID : 2
Format : E-AC-3 JOC
Format/Info : Enhanced AC-3 with Joint Object Coding
Commercial name : Dolby Digital Plus with Dolby Atmos
Codec ID : ec-3
Duration : 1 h 35 min
Bit rate mode : Constant
Bit rate : 768 kb/s
Maximum bit rate : 811 kb/s
Channel(s) : 6 channels
Channel layout : L R C LFE Ls Rs
Sampling rate : 48.0 kHz
Frame rate : 31.250 FPS (1536 SPF)
Compression mode : Lossy
Stream size : 527 MiB (5%)
Title : English
Language : English
Service kind : Complete Main
Default : Yes
Alternate group : 1
Tagged date : UTC 2022-10-14 07:26:53
Complexity index : Not present / 16
Number of dynamic objects : 15
Bed channel count : 1 channel
Bed channel configuration : LFE

Text #1
ID : 3
Format : Timed Text
Codec ID : tx3g
Duration : 1 h 28 min
Bit rate mode : Variable
Bit rate : 66 b/s
Frame rate : 0.509 FPS
Stream size : 42.8 KiB (0%)
Title : English
Language : English
Forced : No
Encoded date : UTC 2022-10-14 07:26:51
Tagged date : UTC 2022-10-14 07:26:53

Text #2
ID : 4
Format : Timed Text
Codec ID : tx3g
Duration : 1 h 28 min
Bit rate mode : Variable
Bit rate : 78 b/s
Frame rate : 0.593 FPS
Stream size : 50.8 KiB (0%)
Title : English
Language : English
Forced : No
Encoded date : UTC 2022-10-14 07:26:51
Tagged date : UTC 2022-10-14 07:26:53

Text #3
ID : 5
Format : Timed Text
Codec ID : tx3g
Duration : 1 h 35 min
Bit rate mode : Variable
Bit rate : 52 b/s
Frame rate : 0.457 FPS
Stream size : 36.9 KiB (0%)
Title : 中文粤语
Language : Chinese
Forced : No
Encoded date : UTC 2022-10-14 07:26:51
Tagged date : UTC 2022-10-14 07:26:53

Text #4
ID : 6
Format : Timed Text
Codec ID : tx3g
Duration : 1 h 35 min
Bit rate mode : Variable
Bit rate : 55 b/s
Frame rate : 0.457 FPS
Stream size : 38.5 KiB (0%)
Title : 中文简体
Language : Chinese
Forced : No
Encoded date : UTC 2022-10-14 07:26:51
Tagged date : UTC 2022-10-14 07:26:53

Text #5
ID : 7
Format : Timed Text
Codec ID : tx3g
Duration : 1 h 35 min
Bit rate mode : Variable
Bit rate : 53 b/s
Frame rate : 0.457 FPS
Stream size : 37.3 KiB (0%)
Title : 中文繁体
Language : Chinese
Forced : No
Encoded date : UTC 2022-10-14 07:26:51
Tagged date : UTC 2022-10-14 07:26:53

Text #6
ID : 8
Format : Timed Text
Codec ID : tx3g
Duration : 1 h 35 min
Bit rate mode : Variable
Bit rate : 52 b/s
Frame rate : 0.421 FPS
Stream size : 36.8 KiB (0%)
Title : Czech
Language : Czech
Forced : No
Encoded date : UTC 2022-10-14 07:26:52
Tagged date : UTC 2022-10-14 07:26:53

Text #7
ID : 9
Format : Timed Text
Codec ID : tx3g
Duration : 1 h 35 min
Bit rate mode : Variable
Bit rate : 56 b/s
Frame rate : 0.455 FPS
Stream size : 39.6 KiB (0%)
Title : Danish
Language : Danish
Forced : No
Encoded date : UTC 2022-10-14 07:26:52
Tagged date : UTC 2022-10-14 07:26:53

Text #8
ID : 10
Format : Timed Text
Codec ID : tx3g
Duration : 1 h 35 min
Bit rate mode : Variable
Bit rate : 53 b/s
Frame rate : 0.354 FPS
Stream size : 37.3 KiB (0%)
Title : Dutch
Language : Dutch
Forced : No
Encoded date : UTC 2022-10-14 07:26:52
Tagged date : UTC 2022-10-14 07:26:53

Text #9
ID : 11
Format : Timed Text
Codec ID : tx3g
Duration : 1 h 35 min
Bit rate mode : Variable
Bit rate : 52 b/s
Frame rate : 0.427 FPS
Stream size : 36.7 KiB (0%)
Title : Finnish
Language : Finnish
Forced : No
Encoded date : UTC 2022-10-14 07:26:52
Tagged date : UTC 2022-10-14 07:26:53

Text #10
ID : 12
Format : Timed Text
Codec ID : tx3g
Duration : 1 h 35 min
Bit rate mode : Variable
Bit rate : 56 b/s
Frame rate : 0.414 FPS
Stream size : 39.4 KiB (0%)
Title : French
Language : French
Forced : No
Encoded date : UTC 2022-10-14 07:26:52
Tagged date : UTC 2022-10-14 07:26:53

Text #11
ID : 13
Format : Timed Text
Codec ID : tx3g
Duration : 1 h 35 min
Bit rate mode : Variable
Bit rate : 58 b/s
Frame rate : 0.447 FPS
Stream size : 40.6 KiB (0%)
Title : German
Language : German
Forced : No
Encoded date : UTC 2022-10-14 07:26:52
Tagged date : UTC 2022-10-14 07:26:53

Text #12
ID : 14
Format : Timed Text
Codec ID : tx3g
Duration : 1 h 35 min
Bit rate mode : Variable
Bit rate : 92 b/s
Frame rate : 0.454 FPS
Stream size : 64.9 KiB (0%)
Title : Greek
Language : Greek
Forced : No
Encoded date : UTC 2022-10-14 07:26:52
Tagged date : UTC 2022-10-14 07:26:53

Text #13
ID : 15
Format : Timed Text
Codec ID : tx3g
Duration : 1 h 35 min
Bit rate mode : Variable
Bit rate : 56 b/s
Frame rate : 0.438 FPS
Stream size : 39.2 KiB (0%)
Title : Hungarian
Language : Hungarian
Forced : No
Encoded date : UTC 2022-10-14 07:26:52
Tagged date : UTC 2022-10-14 07:26:53

Text #14
ID : 16
Format : Timed Text
Codec ID : tx3g
Duration : 1 h 35 min
Bit rate mode : Variable
Bit rate : 54 b/s
Frame rate : 0.434 FPS
Stream size : 37.7 KiB (0%)
Title : Italian
Language : Italian
Forced : No
Encoded date : UTC 2022-10-14 07:26:52
Tagged date : UTC 2022-10-14 07:26:53

Text #15
ID : 17
Format : Timed Text
Codec ID : tx3g
Duration : 1 h 35 min
Bit rate mode : Variable
Bit rate : 55 b/s
Frame rate : 0.475 FPS
Stream size : 38.4 KiB (0%)
Title : Japanese
Language : Japanese
Forced : No
Encoded date : UTC 2022-10-14 07:26:52
Tagged date : UTC 2022-10-14 07:26:53

Text #16
ID : 18
Format : Timed Text
Codec ID : tx3g
Duration : 1 h 35 min
Bit rate mode : Variable
Bit rate : 65 b/s
Frame rate : 0.457 FPS
Stream size : 45.8 KiB (0%)
Title : Korean
Language : Korean
Forced : No
Encoded date : UTC 2022-10-14 07:26:52
Tagged date : UTC 2022-10-14 07:26:53

Text #17
ID : 19
Format : Timed Text
Codec ID : tx3g
Duration : 1 h 35 min
Bit rate mode : Variable
Bit rate : 54 b/s
Frame rate : 0.437 FPS
Stream size : 38.2 KiB (0%)
Title : Norwegian
Language : Norwegian
Forced : No
Encoded date : UTC 2022-10-14 07:26:53
Tagged date : UTC 2022-10-14 07:26:53

Text #18
ID : 20
Format : Timed Text
Codec ID : tx3g
Duration : 1 h 35 min
Bit rate mode : Variable
Bit rate : 51 b/s
Frame rate : 0.447 FPS
Stream size : 36.0 KiB (0%)
Title : Polish
Language : Polish
Forced : No
Encoded date : UTC 2022-10-14 07:26:53
Tagged date : UTC 2022-10-14 07:26:53

Text #19
ID : 21
Format : Timed Text
Codec ID : tx3g
Duration : 1 h 35 min
Bit rate mode : Variable
Bit rate : 54 b/s
Frame rate : 0.457 FPS
Stream size : 37.9 KiB (0%)
Title : Portuguese
Language : Portuguese
Forced : No
Encoded date : UTC 2022-10-14 07:26:53
Tagged date : UTC 2022-10-14 07:26:53

Text #20
ID : 22
Format : Timed Text
Codec ID : tx3g
Duration : 1 h 35 min
Bit rate mode : Variable
Bit rate : 57 b/s
Frame rate : 0.455 FPS
Stream size : 40.2 KiB (0%)
Title : Portuguese
Language : Portuguese
Forced : No
Encoded date : UTC 2022-10-14 07:26:53
Tagged date : UTC 2022-10-14 07:26:53

Text #21
ID : 23
Format : Timed Text
Codec ID : tx3g
Duration : 1 h 35 min
Bit rate mode : Variable
Bit rate : 54 b/s
Frame rate : 0.394 FPS
Stream size : 38.1 KiB (0%)
Title : Romanian
Language : Romanian
Forced : No
Encoded date : UTC 2022-10-14 07:26:53
Tagged date : UTC 2022-10-14 07:26:53

Text #22
ID : 24
Format : Timed Text
Codec ID : tx3g
Duration : 1 h 35 min
Bit rate mode : Variable
Bit rate : 56 b/s
Frame rate : 0.455 FPS
Stream size : 39.0 KiB (0%)
Title : Slovak
Language : Slovak
Forced : No
Encoded date : UTC 2022-10-14 07:26:53
Tagged date : UTC 2022-10-14 07:26:53

Text #23
ID : 25
Format : Timed Text
Codec ID : tx3g
Duration : 1 h 35 min
Bit rate mode : Variable
Bit rate : 56 b/s
Frame rate : 0.410 FPS
Stream size : 39.3 KiB (0%)
Title : Spanish
Language : Spanish
Forced : No
Encoded date : UTC 2022-10-14 07:26:53
Tagged date : UTC 2022-10-14 07:26:53

Text #24
ID : 26
Format : Timed Text
Codec ID : tx3g
Duration : 1 h 35 min
Bit rate mode : Variable
Bit rate : 56 b/s
Frame rate : 0.451 FPS
Stream size : 39.1 KiB (0%)
Title : Spanish-EU
Language : Spanish
Forced : No
Encoded date : UTC 2022-10-14 07:26:53
Tagged date : UTC 2022-10-14 07:26:53

Text #25
ID : 27
Format : Timed Text
Codec ID : tx3g
Duration : 1 h 35 min
Bit rate mode : Variable
Bit rate : 57 b/s
Frame rate : 0.444 FPS
Stream size : 40.2 KiB (0%)
Title : Swedish
Language : Swedish
Forced : No
Encoded date : UTC 2022-10-14 07:26:53
Tagged date : UTC 2022-10-14 07:26:53

Text #26
ID : 28
Format : Timed Text
Codec ID : tx3g
Duration : 1 h 35 min
Bit rate mode : Variable
Bit rate : 54 b/s
Frame rate : 0.365 FPS
Stream size : 38.3 KiB (0%)
Title : Turkish
Language : Turkish
Forced : No
Encoded date : UTC 2022-10-14 07:26:53
Tagged date : UTC 2022-10-14 07:26:53

为了更好体验下载、推荐使用qBittorrent、uTorrent、BitComet等下载软件,有条件的推荐115或会员下载软件!

下载地址:


游客,如果您要查看本帖隐藏内容请回复

游客,如果您要查看本帖隐藏内容请回复

游客,如果您要查看本帖隐藏内容请回复

游客,如果您要查看本帖隐藏内容请回复

游客,如果您要查看本帖隐藏内容请回复

游客,如果您要查看本帖隐藏内容请回复






上一篇:老人 / Old Man (2022) 4K高清版本下载
下一篇:蜘蛛侠:英雄无归 [DIY简繁中字] (2021) 4K高清版本下载
回复

使用道具 举报

2

主题

1454

帖子

4219

积分

4K家园VIP

Rank: 9Rank: 9Rank: 9

积分
4219
发表于 2022-10-14 20:22:55 | 显示全部楼层
传说中的沙发???哇卡卡
回复 支持 反对

使用道具 举报

主题

帖子

0

积分

4K家园VIP

Rank: 9Rank: 9Rank: 9

积分
0
发表于 2022-10-14 21:14:00 | 显示全部楼层
太好啦&萬分感謝版主的無私發佈分享%
回复 支持 反对

使用道具 举报

42

主题

1565

帖子

4507

积分

4K家园VIP

Rank: 9Rank: 9Rank: 9

积分
4507
发表于 2022-10-15 17:20:16 | 显示全部楼层
不错 支持一个了
回复 支持 反对

使用道具 举报

52

主题

1531

帖子

4461

积分

4K家园VIP

Rank: 9Rank: 9Rank: 9

积分
4461
发表于 2022-10-22 08:53:46 | 显示全部楼层
为保住菊花,这个一定得回复!
回复 支持 反对

使用道具 举报

40

主题

1578

帖子

4532

积分

4K家园VIP

Rank: 9Rank: 9Rank: 9

积分
4532
发表于 2022-10-23 12:25:42 | 显示全部楼层
额.....这个可以有
回复 支持 反对

使用道具 举报

2

主题

1614

帖子

4414

积分

4K家园VIP

Rank: 9Rank: 9Rank: 9

积分
4414
发表于 2022-10-30 02:16:18 | 显示全部楼层
好帖必须得顶起
回复 支持 反对

使用道具 举报

您需要登录后才可以回帖 登录 | 立即注册

本版积分规则

精彩图文
Archiver|手机版|TAG|Sitemap|新帖|专题|联系我们:邮箱: 4kjia.com@gmail.com   

4k家园   ©2019