[4K电影] 蜘蛛侠:英雄无归 [DIY简繁中字] (2021) 4K高清版本下载

[复制链接]

主题

帖子

0

积分

超级版主

Rank: 8Rank: 8

积分
0
 楼主| 发表于 2022-10-16 11:33:05 | 显示全部楼层 |阅读模式
本帖最后由 没完没了 于 2022-10-16 22:56 编辑

205436o2uvo5zjvdvlpq20.png

◎译  名 蜘蛛侠:英雄无归/新蜘蛛侠3/蜘蛛侠:无回之战/蜘蛛侠:不战无归(港)/蜘蛛人:无家日(台)/蜘蛛侠3:英雄末路/蜘蛛侠3:无家可归/Spider-Man 3/Spider-Man: Phone Home/Spider-Man: Home-Wrecker/Spider-Man: Home Slice
◎片  名 Spider-Man: No Way Home
◎年  代 2021
◎产  地 美国/冰岛
◎类  别 动作/科幻/冒险
◎语  言 英语/他加禄语
◎上映日期 2021-12-15(中国台湾)/2021-12-17(美国)
◎IMDb评分  8.3/10 from 733980 users 更新 : 2022-10-13
◎IMDb链接  https://www.imdb.com/title/tt10872600/
◎豆瓣评分 6.6/10 from 300075 users 更新 : 2022-10-16
◎豆瓣链接 https://movie.douban.com/subject/26933210/
◎导  演 乔·沃茨 Jon Watts
◎编  剧 克里斯·麦克纳 Chris McKenna / 埃里克·萨默斯 Erik Sommers / 斯坦·李 Stan Lee /史蒂夫·迪特寇 Steve Ditko / 克里斯·麦基纳 Chris McKenna
◎主  演 汤姆·赫兰德 Tom Holland
       赞达亚 Zendaya
       本尼迪克特·康伯巴奇 Benedict Cumberbatch
       雅各布·巴特朗 Jacob Batalon
       玛丽莎·托梅 Marisa Tomei
       乔恩·费儒 Jon Favreau
       威廉·达福 Willem Dafoe
       阿尔弗雷德·莫里纳 Alfred Molina
       杰米·福克斯 Jamie Foxx
       本尼迪克特·王 Benedict Wong
       J·K·西蒙斯 J.K. Simmons
       托比·马奎尔 Tobey Maguire
       安德鲁·加菲尔德 Andrew Garfield
       查理·考克斯 Charlie Cox
       瑞斯·伊凡斯 Rhys Ifans
       托马斯·哈登·丘奇 Thomas Haden Church
       安格瑞·赖斯 Angourie Rice
       托尼·雷沃罗利 Tony Revolori
       宝拉·纽瑟姆 Paula Newsome
       汉尼拔·布勒斯 Hannibal Buress
       马丁·斯塔尔 Martin Starr
       J·B·斯穆夫 J.B. Smoove
       哈龙·汗 Haroon Khan
       本·范德梅 Ben VanderMey
       加里·维克斯 Gary Weeks
       马洛里·霍夫 Mallory Hoff
       里贾纳·陈婷 Regina Ting Chen
       格伦·基奥 Glenn Keogh
       帕丽丝·本杰明 Paris Benjamin
       朱万达斯·坎迪斯 Jwaundace Candece
       泰勒·圣克莱尔 Taylor St. Clair
       小豪尔赫·兰登伯格 Jorge Lendeborg Jr.
       何塞·阿尔弗雷多·费尔南德斯 José Alfredo Fernandez
       约翰尼·塞雷 Johnny Serret
       罗伯特·廷斯利 Robert Tinsley
       哈里·赫兰德 Harry Holland
       汤姆·哈迪 Tom Hardy
       克里斯托·费尔南德斯 Cristo Fernández
       布莱德利·瑞安·奈斯贝尔 Bradley Ryan Knispel
       阿里安·莫耶德 Arian Moayed


◎简  介


  《蜘蛛侠:英雄无归》是英雄系列三部曲的完结篇,也标志着漫威多元宇宙的正式开启。此次,蜘蛛侠(汤姆·赫兰德 饰)与奇异博士(本尼迪克特·康伯巴奇 饰)继《复联4》后再度联手打响时空混战。蜘蛛侠借助奇异博士操控时空的能力打开了时空通道,引发了前所未见的危机。

◎获奖情况

  第94届奥斯卡金像奖(2022)
  最佳视觉效果(提名)

  第24届美国服装设计工会奖(2022)
  科幻/奇幻题材电影最佳服装设计(提名)

  第7届豆瓣电影年度榜单(2020)
  最值得期待的外语电影(提名)

Video
ID : 1
Format : HEVC
Format/Info : High Efficiency Video Coding
Format profile : Main 10@L5@High
HDR format : Dolby Vision, Version 1.0, dvhe.05.06, BL+RPU
Codec ID : V_MPEGH/ISO/HEVC
Duration : 2 h 36 min
Bit rate : 14.3 Mb/s
Width : 3 840 pixels
Height : 1 596 pixels
Display aspect ratio : 2.40:1
Frame rate mode : Constant
Frame rate : 23.976 (24000/1001) FPS
Color space : YUV
Chroma subsampling : 4:2:0
Bit depth : 10 bits
Bits/(Pixel*Frame) : 0.097
Stream size : 15.6 GiB (97%)
Default : Yes
Forced : No

Audio
ID : 2
Format : AC-3
Format/Info : Audio Coding 3
Commercial name : Dolby Digital
Codec ID : A_AC3
Duration : 2 h 36 min
Bit rate mode : Constant
Bit rate : 384 kb/s
Channel(s) : 6 channels
Channel layout : L R C LFE Ls Rs
Sampling rate : 48.0 kHz
Frame rate : 31.250 FPS (1536 SPF)
Compression mode : Lossy
Stream size : 431 MiB (3%)
Language : English
Service kind : Complete Main
Default : Yes
Forced : No

Text
ID : 3
Format : UTF-8
Codec ID : S_TEXT/UTF8
Codec ID/Info : UTF-8 Plain Text
Duration : 2 h 36 min
Bit rate : 65 b/s
Frame rate : 0.235 FPS
Count of elements : 2211
Stream size : 74.9 KiB (0%)
Language : English
Default : Yes
Forced : No

为了更好体验下载、推荐使用qBittorrent、uTorrent、BitComet等下载软件,有条件的推荐115或会员下载软件!

下载地址:

游客,如果您要查看本帖隐藏内容请回复

游客,如果您要查看本帖隐藏内容请回复

游客,如果您要查看本帖隐藏内容请回复

游客,如果您要查看本帖隐藏内容请回复

游客,如果您要查看本帖隐藏内容请回复







上一篇:罗莎琳 [简繁粤中字] / Rosaline (2022) 4K高清版本下载
下一篇:天国王朝 [简繁粤中字]/Kingdom of Heaven(2005) 4K高清版本下载
回复

使用道具 举报

2

主题

1203

帖子

3629

积分

4K家园VIP

Rank: 9Rank: 9Rank: 9

积分
3629
发表于 2022-10-16 11:33:08 来自手机 | 显示全部楼层
看起来好像不错的样子
回复 支持 反对

使用道具 举报

主题

帖子

25

积分

新手上路

Rank: 1

积分
25
发表于 2022-10-16 12:29:50 | 显示全部楼层
感谢分享,这资源不错
回复 支持 反对

使用道具 举报

主题

帖子

176

积分

新手上路

Rank: 1

积分
176
发表于 2022-10-16 14:21:35 | 显示全部楼层
666666666666666666666666666666666666
回复 支持 反对

使用道具 举报

主题

帖子

36

积分

4K家园VIP

Rank: 9Rank: 9Rank: 9

积分
36
发表于 2022-10-16 18:36:10 | 显示全部楼层
6666666
回复

使用道具 举报

主题

帖子

0

积分

4K家园VIP

Rank: 9Rank: 9Rank: 9

积分
0
发表于 2022-10-16 19:26:51 | 显示全部楼层
太好啦&萬分感謝版主的無私發佈分享%
回复 支持 反对

使用道具 举报

主题

帖子

21

积分

新手上路

Rank: 1

积分
21
发表于 2022-10-16 22:11:06 | 显示全部楼层
11111111111
回复 支持 反对

使用道具 举报

主题

帖子

80

积分

新手上路

Rank: 1

积分
80
发表于 2022-10-17 11:05:43 | 显示全部楼层
感谢楼主
回复

使用道具 举报

1

主题

1431

帖子

4103

积分

4K家园VIP

Rank: 9Rank: 9Rank: 9

积分
4103
发表于 2022-10-17 15:16:40 | 显示全部楼层
不错 支持下
回复 支持 反对

使用道具 举报

主题

帖子

9

积分

新手上路

Rank: 1

积分
9
发表于 2022-10-18 19:57:54 | 显示全部楼层
xxfxhhhhhhh
回复 支持 反对

使用道具 举报

您需要登录后才可以回帖 登录 | 立即注册

本版积分规则

精彩图文
Archiver|手机版|TAG|Sitemap|新帖|专题|联系我们:邮箱: 4kjia.com@gmail.com   

4k家园   ©2019