[4K电影] 天国王朝 [简繁粤中字]/Kingdom of Heaven(2005) 4K高清版本下载

[复制链接]

主题

帖子

0

积分

超级版主

Rank: 8Rank: 8

积分
0
 楼主| 发表于 2022-10-16 22:31:31 | 显示全部楼层 |阅读模式
本帖最后由 最爱4K哟 于 2022-10-16 22:40 编辑

QQ图片20221016223513_副本.png

◎译  名 天国王朝/天国骄雄(港)/王者天下(台)/圣战王朝
◎片  名 Kingdom of Heaven
◎年  代 2005
◎国  家 美国/英国/西班牙/德国/摩洛哥
◎类  别 动作/冒险/历史
◎语  言 英语/阿拉伯语/拉丁语/意大利语
◎上映日期 2005-05-06(美国)
◎IMDb评分 7.2/10 from 288599 users 更新 : 2022-10-16
◎IMDb链接 http://www.imdb.com/title/tt0320661/
◎豆瓣评分 8.1/10 from 32,413 users 更新 : 2022-10-16
◎豆瓣链接 http://movie.douban.com/subject/1309071/
◎片  长 2 h 24 min
◎导  演 雷德利·斯科特 Ridley Scott
◎主  演 奥兰多·布鲁姆 Orlando Bloom
       伊娃·格林 Eva Green
       爱德华·诺顿 Edward Norton
       连姆·尼森 Liam Neeson
       麦克·辛 Michael Sheen
       艾瑞克·艾伯纳尼 Eriq Ebouaney
       大卫·休里斯 David Thewlis
       杰瑞米·艾恩斯 Jeremy Irons

◎简  介

  《天国王朝》大部分角色基于历史人物而改编,哥伦比亚大学的Hamid Dabashi教授为该片的首席学术顾问。
  十二世纪的法国,青年铁匠贝里昂(奥兰多·布鲁姆 Orlando Bloom 饰)无意间知道自己是十字军将领戈弗雷(连姆·尼森 Liam Neeson 饰)失散多年的私生子。为了寻找救赎,巴利安跟随父亲前往耶路撒冷。骁勇善战加上品格高尚,贝里昂几经征战成为赫赫有名的武士,不但深受国王赏识,美丽的公主西贝拉(伊娃·格林 Eva Green 饰)也对他芳心暗许。而他也深深地被当地陌生而奇特的文化吸引,然而随着战役增加,带来无尽的杀戮和掠夺,贝里昂终于领会父亲训言中和平的真义与生命的真爱。耶路撒冷王故去,新王继位。好战的新王挑起战争,萨拉丁率领撒萨拉逊骑士要收复他们的圣地——耶路撒冷。危急之时,贝里昂挺身而出,誓言捍卫“天国王朝”……

Video
ID : 1
Format : HEVC
Format/Info : High Efficiency Video Coding
Format profile : Main 10@L5@High
HDR format : SMPTE ST 2086, HDR10 compatible
Codec ID : V_MPEGH/ISO/HEVC
Duration : 2 h 24 min
Bit rate : 16.2 Mb/s
Width : 3 840 pixels
Height : 2 160 pixels
Display aspect ratio : 16:9
Frame rate mode : Constant
Frame rate : 23.976 (24000/1001) FPS
Color space : YUV
Chroma subsampling : 4:2:0
Bit depth : 10 bits
Bits/(Pixel*Frame) : 0.081
Stream size : 16.3 GiB (98%)
Language : English
Default : Yes
Forced : No
Color range : Limited
Color primaries : BT.2020
Transfer characteristics : PQ
Matrix coefficients : BT.2020 non-constant
Mastering display color primaries : BT.2020
Mastering display luminance : min: 0.0001 cd/m2, max: 1000 cd/m2

Audio
ID : 2
Format : E-AC-3
Format/Info : Enhanced AC-3
Commercial name : Dolby Digital Plus
Codec ID : A_EAC3
Duration : 2 h 24 min
Bit rate mode : Constant
Bit rate : 256 kb/s
Channel(s) : 6 channels
Channel layout : L R C LFE Ls Rs
Sampling rate : 48.0 kHz
Frame rate : 31.250 FPS (1536 SPF)
Compression mode : Lossy
Stream size : 265 MiB (2%)
Language : English
Service kind : Complete Main
Default : Yes
Forced : No

Text #1
ID : 3
Format : UTF-8
Codec ID : S_TEXT/UTF8
Codec ID/Info : UTF-8 Plain Text
Duration : 59 min 46 s
Bit rate : 0 b/s
Frame rate : 0.001 FPS
Count of elements : 3
Stream size : 83.0 Bytes (0%)
Title : Forced
Language : English
Default : Yes
Forced : Yes

Text #2
ID : 4
Format : UTF-8
Codec ID : S_TEXT/UTF8
Codec ID/Info : UTF-8 Plain Text
Duration : 2 h 11 min
Bit rate : 27 b/s
Frame rate : 0.127 FPS
Count of elements : 1006
Stream size : 26.9 KiB (0%)
Language : English
Default : No
Forced : No

Text #3
ID : 5
Format : UTF-8
Codec ID : S_TEXT/UTF8
Codec ID/Info : UTF-8 Plain Text
Duration : 2 h 22 min
Bit rate : 28 b/s
Frame rate : 0.137 FPS
Count of elements : 1172
Stream size : 30.1 KiB (0%)
Title : SDH
Language : English
Default : No
Forced : No

Text #4
ID : 6
Format : UTF-8
Codec ID : S_TEXT/UTF8
Codec ID/Info : UTF-8 Plain Text
Duration : 2 h 14 min
Bit rate : 26 b/s
Frame rate : 0.099 FPS
Count of elements : 804
Stream size : 26.0 KiB (0%)
Language : Czech
Default : No
Forced : No

Text #5
ID : 7
Format : UTF-8
Codec ID : S_TEXT/UTF8
Codec ID/Info : UTF-8 Plain Text
Duration : 2 h 14 min
Bit rate : 27 b/s
Frame rate : 0.098 FPS
Count of elements : 794
Stream size : 27.3 KiB (0%)
Language : Danish
Default : No
Forced : No

Text #6
ID : 8
Format : UTF-8
Codec ID : S_TEXT/UTF8
Codec ID/Info : UTF-8 Plain Text
Duration : 2 h 23 min
Bit rate : 28 b/s
Frame rate : 0.093 FPS
Count of elements : 803
Stream size : 30.1 KiB (0%)
Language : German
Default : No
Forced : No

Text #7
ID : 9
Format : UTF-8
Codec ID : S_TEXT/UTF8
Codec ID/Info : UTF-8 Plain Text
Duration : 2 h 14 min
Bit rate : 26 b/s
Frame rate : 0.102 FPS
Count of elements : 830
Stream size : 26.5 KiB (0%)
Title : Latin American
Language : Spanish
Default : No
Forced : No

Text #8
ID : 10
Format : UTF-8
Codec ID : S_TEXT/UTF8
Codec ID/Info : UTF-8 Plain Text
Duration : 2 h 14 min
Bit rate : 28 b/s
Frame rate : 0.129 FPS
Count of elements : 1047
Stream size : 28.2 KiB (0%)
Title : Latin American (SDH)
Language : Spanish
Default : No
Forced : No

Text #9
ID : 11
Format : UTF-8
Codec ID : S_TEXT/UTF8
Codec ID/Info : UTF-8 Plain Text
Duration : 2 h 23 min
Bit rate : 25 b/s
Frame rate : 0.093 FPS
Count of elements : 804
Stream size : 26.8 KiB (0%)
Language : Spanish
Default : No
Forced : No

Text #10
ID : 12
Format : UTF-8
Codec ID : S_TEXT/UTF8
Codec ID/Info : UTF-8 Plain Text
Duration : 2 h 23 min
Bit rate : 22 b/s
Frame rate : 0.093 FPS
Count of elements : 803
Stream size : 23.3 KiB (0%)
Language : Finnish
Default : No
Forced : No

Text #11
ID : 13
Format : UTF-8
Codec ID : S_TEXT/UTF8
Codec ID/Info : UTF-8 Plain Text
Duration : 2 h 23 min
Bit rate : 26 b/s
Frame rate : 0.099 FPS
Count of elements : 849
Stream size : 28.2 KiB (0%)
Language : French
Default : No
Forced : No

Text #12
ID : 14
Format : UTF-8
Codec ID : S_TEXT/UTF8
Codec ID/Info : UTF-8 Plain Text
Duration : 2 h 14 min
Bit rate : 25 b/s
Frame rate : 0.099 FPS
Count of elements : 803
Stream size : 25.0 KiB (0%)
Language : Hungarian
Default : No
Forced : No

Text #13
ID : 15
Format : UTF-8
Codec ID : S_TEXT/UTF8
Codec ID/Info : UTF-8 Plain Text
Duration : 2 h 14 min
Bit rate : 29 b/s
Frame rate : 0.099 FPS
Count of elements : 804
Stream size : 29.7 KiB (0%)
Language : Icelandic
Default : No
Forced : No

Text #14
ID : 16
Format : UTF-8
Codec ID : S_TEXT/UTF8
Codec ID/Info : UTF-8 Plain Text
Duration : 2 h 14 min
Bit rate : 26 b/s
Frame rate : 0.111 FPS
Count of elements : 901
Stream size : 26.2 KiB (0%)
Language : Japanese
Default : No
Forced : No

Text #15
ID : 17
Format : UTF-8
Codec ID : S_TEXT/UTF8
Codec ID/Info : UTF-8 Plain Text
Duration : 2 h 14 min
Bit rate : 24 b/s
Frame rate : 0.099 FPS
Count of elements : 805
Stream size : 24.3 KiB (0%)
Language : Korean
Default : No
Forced : No

Text #16
ID : 18
Format : UTF-8
Codec ID : S_TEXT/UTF8
Codec ID/Info : UTF-8 Plain Text
Duration : 2 h 23 min
Bit rate : 24 b/s
Frame rate : 0.087 FPS
Count of elements : 748
Stream size : 25.7 KiB (0%)
Language : Dutch
Default : No
Forced : No

Text #17
ID : 19
Format : UTF-8
Codec ID : S_TEXT/UTF8
Codec ID/Info : UTF-8 Plain Text
Duration : 2 h 23 min
Bit rate : 24 b/s
Frame rate : 0.091 FPS
Count of elements : 780
Stream size : 25.5 KiB (0%)
Language : Norwegian
Default : No
Forced : No

Text #18
ID : 20
Format : UTF-8
Codec ID : S_TEXT/UTF8
Codec ID/Info : UTF-8 Plain Text
Duration : 2 h 14 min
Bit rate : 25 b/s
Frame rate : 0.099 FPS
Count of elements : 803
Stream size : 25.4 KiB (0%)
Language : Polish
Default : No
Forced : No

Text #19
ID : 21
Format : UTF-8
Codec ID : S_TEXT/UTF8
Codec ID/Info : UTF-8 Plain Text
Duration : 2 h 14 min
Bit rate : 25 b/s
Frame rate : 0.100 FPS
Count of elements : 812
Stream size : 25.5 KiB (0%)
Title : Brazilian
Language : Portuguese
Default : No
Forced : No

Text #20
ID : 22
Format : UTF-8
Codec ID : S_TEXT/UTF8
Codec ID/Info : UTF-8 Plain Text
Duration : 2 h 14 min
Bit rate : 28 b/s
Frame rate : 0.099 FPS
Count of elements : 803
Stream size : 28.4 KiB (0%)
Language : Portuguese
Default : No
Forced : No

Text #21
ID : 23
Format : UTF-8
Codec ID : S_TEXT/UTF8
Codec ID/Info : UTF-8 Plain Text
Duration : 2 h 14 min
Bit rate : 28 b/s
Frame rate : 0.100 FPS
Count of elements : 806
Stream size : 27.9 KiB (0%)
Language : Romanian
Default : No
Forced : No

Text #22
ID : 24
Format : UTF-8
Codec ID : S_TEXT/UTF8
Codec ID/Info : UTF-8 Plain Text
Duration : 2 h 23 min
Bit rate : 20 b/s
Frame rate : 0.074 FPS
Count of elements : 633
Stream size : 21.9 KiB (0%)
Language : Swedish
Default : No
Forced : No

Text #23
ID : 25
Format : UTF-8
Codec ID : S_TEXT/UTF8
Codec ID/Info : UTF-8 Plain Text
Duration : 2 h 14 min
Bit rate : 27 b/s
Frame rate : 0.099 FPS
Count of elements : 805
Stream size : 27.0 KiB (0%)
Language : Turkish
Default : No
Forced : No

Text #24
ID : 26
Format : UTF-8
Codec ID : S_TEXT/UTF8
Codec ID/Info : UTF-8 Plain Text
Duration : 2 h 14 min
Bit rate : 20 b/s
Frame rate : 0.099 FPS
Count of elements : 805
Stream size : 20.1 KiB (0%)
Title : 中文(粤语)
Language : Chinese
Default : No
Forced : No

Text #25
ID : 27
Format : UTF-8
Codec ID : S_TEXT/UTF8
Codec ID/Info : UTF-8 Plain Text
Duration : 2 h 23 min
Bit rate : 18 b/s
Frame rate : 0.093 FPS
Count of elements : 805
Stream size : 19.6 KiB (0%)
Title : 中文(简体)
Language : Chinese
Default : No
Forced : No

Text #26
ID : 28
Format : UTF-8
Codec ID : S_TEXT/UTF8
Codec ID/Info : UTF-8 Plain Text
Duration : 2 h 14 min
Bit rate : 20 b/s
Frame rate : 0.100 FPS
Count of elements : 813
Stream size : 20.2 KiB (0%)
Title : 中文(繁体)
Language : Chinese
Default : No
Forced : No

Menu
00:00:46.379 : en:Intro
00:01:50.777 : en:Scene 1
02:15:57.107 : en:Credits

为了更好体验下载、推荐使用qBittorrent、uTorrent、BitComet等下载软件,有条件的推荐115或会员下载软件!

下载地址:

游客,如果您要查看本帖隐藏内容请回复


相关4K蓝光REMUX 版本链接:《天国王朝/王者天下(台)(俄版)》4K蓝光REMUX 版本下载




上一篇:蜘蛛侠:英雄无归 [DIY简繁中字] (2021) 4K高清版本下载
下一篇:天地大冲撞 / Deep Impact (1998) 4K高清版本下载
回复

使用道具 举报

0

主题

1418

帖子

4104

积分

4K家园VIP

Rank: 9Rank: 9Rank: 9

积分
4104
发表于 2022-10-16 22:31:36 | 显示全部楼层
支持你哈...................................
回复 支持 反对

使用道具 举报

主题

帖子

28

积分

新手上路

Rank: 1

积分
28
发表于 2022-10-16 22:47:04 | 显示全部楼层
这个不是导演剪辑版啊,请问是官方发行的吗?
回复 支持 反对

使用道具 举报

4

主题

1419

帖子

4268

积分

4K家园VIP

Rank: 9Rank: 9Rank: 9

积分
4268
发表于 2022-10-17 01:47:20 | 显示全部楼层
4K电影下个试试
回复 支持 反对

使用道具 举报

主题

帖子

96

积分

新手上路

Rank: 1

积分
96
发表于 2022-10-17 08:11:59 | 显示全部楼层
经典影片楼主辛苦 收藏了
回复 支持 反对

使用道具 举报

主题

帖子

0

积分

新手上路

Rank: 1

积分
0
发表于 2022-10-17 08:15:21 | 显示全部楼层
这是不是导演剪辑版吧
回复 支持 反对

使用道具 举报

主题

帖子

12

积分

新手上路

Rank: 1

积分
12
发表于 2022-10-17 12:19:30 | 显示全部楼层
经典影片,值得收藏。
回复 支持 反对

使用道具 举报

1

主题

1777

帖子

4944

积分

4K家园VIP

Rank: 9Rank: 9Rank: 9

积分
4944
发表于 2022-10-17 12:42:06 来自手机 | 显示全部楼层
垃圾内容,路过为证。
回复 支持 反对

使用道具 举报

主题

帖子

12

积分

新手上路

Rank: 1

积分
12
发表于 2022-10-17 12:59:20 | 显示全部楼层
不错。
回复

使用道具 举报

2

主题

1639

帖子

4763

积分

4K家园VIP

Rank: 9Rank: 9Rank: 9

积分
4763
发表于 2022-10-17 15:27:09 | 显示全部楼层
在撸一遍。。。
回复 支持 反对

使用道具 举报

您需要登录后才可以回帖 登录 | 立即注册

本版积分规则

精彩图文
Archiver|手机版|TAG|Sitemap|新帖|专题|联系我们:邮箱: 4kjia.com@gmail.com   

4k家园   ©2019