[4K电影] 天地大冲撞 / Deep Impact (1998) 4K高清版本下载

[复制链接]

主题

帖子

0

积分

超级版主

Rank: 8Rank: 8

积分
0
 楼主| 发表于 2022-10-17 12:04:58 | 显示全部楼层 |阅读模式
本帖最后由 没完没了 于 2022-10-17 16:52 编辑

QQ图片20221017164913_副本.png

◎标  题 天地大冲撞
◎译  名 末日救未来(港) / 彗星撞地球(台) / 末日救地球
◎片  名 Deep Impact
◎年  代 1998
◎产  地 美国
◎类  别 科幻 / 灾难
◎语  言 英语
◎上映日期 1998-05-08
◎IMDb链接 https://www.imdb.com/title/tt0120647/
◎豆瓣评分 7.2/10 (38850人评价)
◎豆瓣链接 https://movie.douban.com/subject/1293131/
◎片  长 120 分钟
◎导  演 米密·莱德 Mimi Leder
◎编  剧 布鲁斯·乔尔·鲁宾 Bruce Joel Rubin
      迈克尔·托尔金 Michael Tolkin
◎演  员 伊利亚·伍德 Elijah Wood
      瓦妮莎·雷德格雷夫 Vanessa Redgrave
      摩根·弗里曼 Morgan Freeman
      罗伯特·杜瓦尔 Robert Duvall
      蒂娅·里欧妮 Téa Leoni
      乔恩·费儒 Jon Favreau
      莉莉·索博斯基 Leelee Sobieski
      詹姆斯·克伦威尔 James Cromwell
      多格雷·斯科特 Dougray Scott
      马克·摩斯 Mark Moses
      德雷克·德·林特 Derek de Lint
      马克西米连·谢尔 Maximilian Schell
      朗·埃达德 Ron Eldard
      劳拉·伊内斯 Laura Innes
      玛丽·麦克科马克 Mary McCormack
      理查德·希夫 Richard Schiff
      布莱尔·安德伍德 Blair Underwood
      迈克·奥麦利 Mike O'Malley
      杰森·多灵 Jason Dohring
      柯特伍德·史密斯 Kurtwood Smith
      查尔斯·拉西·陈 Charles Rahi Chun
      弗朗西斯·X.麦卡蒂 Francis X. McCarthy
      童自荣 Zirong Tong
      沈晓谦 Xiaoqian Shen
      莱斯利·迪利 Leslie Dilley
      米克·罗杰斯 Mic Rodgers
      Kevin LaRosa Kevin LaRosa


◎简  介

    “毕德曼慧星”正朝着地球飞奔而来,给人类致命一击。当局紧急行动,研究出一个最佳方案——由宇航员坦纳(罗伯特·杜瓦尔 Robert Duvall饰)驾驶“弥赛号”飞船飞往慧星,把预先准备好的核弹放置到慧星上面引爆,以令它化成碎片或是改变轨道。坦纳英勇地完成了任务,却发现并没有取得预期效果。慧星碎成了一大一小两部分,向地球步步逼近。   当局迅速采取最后的行动,用“诺亚方舟”计划保住包括人类在内的一些地球物种。这是一个秘密的地下庇护所,只有少数的人可以在这里避开大劫难,等灾难散尽后方重建世界。较小的那部分慧星已经撞向地球,引发山崩地裂,一片世界末日的景象。而跟随其后的大慧星给地球带来的毁灭程度,将远远超乎人们想象,力挽狂澜的人类进入了倒数时刻。

Video
ID : 1
Format : HEVC
Format/Info : High Efficiency Video Coding
Format profile : Main@L5@High
Codec ID : V_MPEGH/ISO/HEVC
Duration : 2 h 1 min
Bit rate : 14.7 Mb/s
Width : 3 840 pixels
Height : 2 160 pixels
Display aspect ratio : 16:9
Frame rate mode : Constant
Frame rate : 23.976 (24000/1001) FPS
Color space : YUV
Chroma subsampling : 4:2:0
Bit depth : 8 bits
Bits/(Pixel*Frame) : 0.074
Stream size : 12.5 GiB (63%)
Default : Yes
Forced : No
Color range : Limited
Color primaries : BT.709
Transfer characteristics : BT.709
Matrix coefficients : BT.709

Audio #1
ID : 2
ID in the original source medium : 4352 (0x1100)
Format : MLP FBA
Format/Info : Meridian Lossless Packing FBA
Commercial name : Dolby TrueHD
Codec ID : A_TRUEHD
Duration : 2 h 1 min
Bit rate mode : Variable
Bit rate : 3 963 kb/s
Maximum bit rate : 5 544 kb/s
Channel(s) : 6 channels
Channel layout : L R C LFE Ls Rs
Sampling rate : 48.0 kHz
Frame rate : 1 200.000 FPS (40 SPF)
Bit depth : 24 bits
Compression mode : Lossless
Stream size : 3.35 GiB (17%)
Title : TrueHD 5.1
Language : English
Default : Yes
Forced : No
Original source medium : Blu-ray

Audio #2
ID : 3
Format : DTS XLL
Format/Info : Digital Theater Systems
Commercial name : DTS-HD Master Audio
Codec ID : A_DTS
Duration : 2 h 1 min
Bit rate mode : Variable
Bit rate : 4 311 kb/s
Channel(s) : 6 channels
Channel layout : C L R Ls Rs LFE
Sampling rate : 48.0 kHz
Frame rate : 93.750 FPS (512 SPF)
Bit depth : 24 bits
Compression mode : Lossless
Stream size : 3.65 GiB (18%)
Title : DTS-HD MA 5.1
Language : English
Default : No
Forced : No

Audio #3
ID : 4
Format : AAC LC
Format/Info : Advanced Audio Codec Low Complexity
Codec ID : A_AAC-2
Duration : 2 h 1 min
Bit rate : 445 kb/s
Channel(s) : 6 channels
Channel layout : C L R Ls Rs LFE
Sampling rate : 48.0 kHz
Frame rate : 46.875 FPS (1024 SPF)
Compression mode : Lossy
Stream size : 386 MiB (2%)
Title : AAC 5.1
Language : English
Default : No
Forced : No

Text
ID : 5
Format : UTF-8
Codec ID : S_TEXT/UTF8
Codec ID/Info : UTF-8 Plain Text
Duration : 1 h 52 min
Bit rate : 65 b/s
Frame rate : 0.255 FPS
Count of elements : 1719
Stream size : 53.4 KiB (0%)
Title : English
Language : English
Default : Yes
Forced : No

Menu
00:00:00.000 : Chapter 01
00:02:37.615 : Chapter 02
00:07:01.754 : Chapter 03
00:10:53.944 : Chapter 04
00:17:10.988 : Chapter 05
00:20:37.861 : Chapter 06
00:22:21.631 : Chapter 07
00:25:28.026 : Chapter 08
00:35:00.932 : Chapter 09
00:39:13.267 : Chapter 10
00:43:58.886 : Chapter 11
00:51:49.022 : Chapter 12
00:56:17.540 : Chapter 13
01:00:15.778 : Chapter 14
01:05:01.814 : Chapter 15
01:09:42.219 : Chapter 16
01:13:53.345 : Chapter 17
01:18:10.602 : Chapter 18
01:20:08.303 : Chapter 19
01:22:52.467 : Chapter 20
01:25:20.323 : Chapter 21
01:27:46.844 : Chapter 22
01:31:53.591 : Chapter 23
01:34:23.074 : Chapter 24
01:38:45.044 : Chapter 25
01:40:55.424 : Chapter 26
01:43:22.279 : Chapter 27
01:46:15.118 : Chapter 28
01:51:43.488 : Chapter 29
01:53:23.838 : Chapter 30

为了更好体验下载、推荐使用qBittorrent、uTorrent、BitComet等下载软件,有条件的推荐115或会员下载软件!

下载地址:


游客,如果您要查看本帖隐藏内容请回复

游客,如果您要查看本帖隐藏内容请回复

游客,如果您要查看本帖隐藏内容请回复

游客,如果您要查看本帖隐藏内容请回复




4K海报.gif

上一篇:天国王朝 [简繁粤中字]/Kingdom of Heaven(2005) 4K高清版本下载
下一篇:良种动物 / Thoroughbreds (2017) 4K高清版本下载
回复

使用道具 举报

2

主题

1464

帖子

4410

积分

4K家园VIP

Rank: 9Rank: 9Rank: 9

积分
4410
发表于 2022-10-17 12:05:03 | 显示全部楼层
体验下4K版的
回复 支持 反对

使用道具 举报

主题

帖子

12

积分

新手上路

Rank: 1

积分
12
发表于 2022-10-17 12:18:17 | 显示全部楼层
非常感谢!
回复

使用道具 举报

49

主题

1529

帖子

4413

积分

4K家园VIP

Rank: 9Rank: 9Rank: 9

积分
4413
发表于 2022-10-17 18:33:38 | 显示全部楼层
回复 支持 反对

使用道具 举报

主题

帖子

18

积分

新手上路

Rank: 1

积分
18
发表于 2022-10-17 18:43:52 来自手机 | 显示全部楼层
这么老的欧俺也有
回复 支持 反对

使用道具 举报

主题

帖子

0

积分

新手上路

Rank: 1

积分
0
发表于 2022-10-17 19:43:56 | 显示全部楼层
谢谢楼主分享
回复 支持 反对

使用道具 举报

51

主题

1626

帖子

4694

积分

4K家园VIP

Rank: 9Rank: 9Rank: 9

积分
4694
发表于 2022-10-17 19:47:41 | 显示全部楼层
我也来顶一下..
回复 支持 反对

使用道具 举报

4

主题

1762

帖子

4906

积分

4K家园VIP

Rank: 9Rank: 9Rank: 9

积分
4906
发表于 2022-10-17 22:20:08 | 显示全部楼层
珍爱生命,果断回帖。
回复 支持 反对

使用道具 举报

44

主题

1575

帖子

4543

积分

4K家园VIP

Rank: 9Rank: 9Rank: 9

积分
4543
发表于 2022-10-18 02:52:20 来自手机 | 显示全部楼层
纯粹路过,没任何兴趣,仅仅是看在老用户份上回复一下
回复 支持 反对

使用道具 举报

头像被屏蔽

主题

帖子

1017

积分

禁止访问

积分
1017
发表于 2022-10-20 22:35:49 | 显示全部楼层
提示: 作者被禁止或删除 内容自动屏蔽
回复

使用道具 举报

您需要登录后才可以回帖 登录 | 立即注册

本版积分规则

精彩图文
Archiver|手机版|TAG|Sitemap|新帖|专题|联系我们:邮箱: 4kjia.com@gmail.com   

4k家园   ©2019