[4K电影] 良种动物 / Thoroughbreds (2017) 4K高清版本下载

[复制链接]

主题

帖子

0

积分

超级版主

Rank: 8Rank: 8

积分
0
 楼主| 发表于 2022-10-17 20:27:49 | 显示全部楼层 |阅读模式
本帖最后由 最爱4K哟 于 2022-10-17 20:27 编辑

QQ图片20221017202205_副本.png

◎标  题 良种动物
◎译  名 纯种动物(台) / 优良品种
◎片  名 Thoroughbreds
◎年  代 2017
◎产  地 美国
◎类  别 剧情 / 惊悚
◎语  言 英语
◎上映日期 2017-01-21(圣丹斯电影节) / 2018-03-09(美国)
◎IMDb评分 6.6/10 from 42815 users 更新 : 2022-10-14
◎IMDb链接 https://www.imdb.com/title/tt5649108/
◎豆瓣评分 6.3/10 from 3415 users 更新 : 2022-10-17
◎豆瓣链接 https://movie.douban.com/subject/26782004/
◎片  长 92分钟
◎导  演 科瑞·芬莱 Cory Finley
◎编  剧 科瑞·芬莱 Cory Finley
◎演  员 安雅·泰勒-乔伊 Anya Taylor-Joy
       奥利维亚·库克 Olivia Cooke
       安东·叶利钦 Anton Yelchin
       保罗·斯帕克斯 Paul Sparks
       弗朗西斯·斯威夫特 Francie Swift
       凯丽·维诺夫 Kaili Vernoff
       露易丝·福特 Louise Ford


◎简  介


  儿时玩伴Lily和Amanda在多年的分别后于康涅狄格郊区重聚,一位出落成光鲜亮丽的上流社会少女,一位则特立独行,游走于社会边缘。由于Lily有一位暴虐的继父Mark,她们联手使出最有毁灭性的方法来对抗他,也因此雇佣了一位当地骗子来开展计划。
Video
ID : 1
Format : HEVC
Format/Info : High Efficiency Video Coding
Format profile : Main 10@L5@High
HDR format : SMPTE ST 2086, HDR10 compatible
Codec ID : V_MPEGH/ISO/HEVC
Duration : 1 h 32 min
Bit rate : 14.1 Mb/s
Width : 3 838 pixels
Height : 1 604 pixels
Display aspect ratio : 2.40:1
Frame rate mode : Constant
Frame rate : 23.976 (24000/1001) FPS
Color space : YUV
Chroma subsampling : 4:2:0 (Type 2)
Bit depth : 10 bits
Bits/(Pixel*Frame) : 0.096
Stream size : 9.14 GiB (81%)
Default : Yes
Forced : No
Color range : Limited
Color primaries : BT.2020
Transfer characteristics : PQ
Matrix coefficients : BT.2020 non-constant
Mastering display color primaries : Display P3
Mastering display luminance : min: 0.0050 cd/m2, max: 1000 cd/m2
Maximum Content Light Level : 867 cd/m2
Maximum Frame-Average Light Level : 231 cd/m2

Audio #1
ID : 2
Format : DTS XLL
Format/Info : Digital Theater Systems
Commercial name : DTS-HD Master Audio
Codec ID : A_DTS
Duration : 1 h 32 min
Bit rate mode : Variable
Bit rate : 2 849 kb/s
Channel(s) : 6 channels
Channel layout : C L R Ls Rs LFE
Sampling rate : 48.0 kHz
Frame rate : 93.750 FPS (512 SPF)
Bit depth : 24 bits
Compression mode : Lossless
Delay relative to video : 1 s 17 ms
Stream size : 1.84 GiB (16%)
Title : English DTS-HD 5.1
Language : English
Default : Yes
Forced : No

Audio #2
ID : 3
Format : AC-3
Format/Info : Audio Coding 3
Commercial name : Dolby Digital
Codec ID : A_AC3
Duration : 1 h 32 min
Bit rate mode : Constant
Bit rate : 384 kb/s
Channel(s) : 6 channels
Channel layout : L R C LFE Ls Rs
Sampling rate : 48.0 kHz
Frame rate : 31.250 FPS (1536 SPF)
Compression mode : Lossy
Stream size : 254 MiB (2%)
Language : English
Service kind : Complete Main
Default : No
Forced : No

Text #1
ID : 4
Format : UTF-8
Codec ID : S_TEXT/UTF8
Codec ID/Info : UTF-8 Plain Text
Duration : 1 h 27 min
Bit rate : 61 b/s
Frame rate : 0.264 FPS
Count of elements : 1380
Stream size : 39.3 KiB (0%)
Title : English CC
Language : English
Default : Yes
Forced : No

Text #2
ID : 5
Format : UTF-8
Codec ID : S_TEXT/UTF8
Codec ID/Info : UTF-8 Plain Text
Duration : 1 h 26 min
Bit rate : 52 b/s
Frame rate : 0.195 FPS
Count of elements : 1010
Stream size : 33.4 KiB (0%)
Title : English SDH
Language : English
Default : No
Forced : No

Text #3
ID : 6
Format : UTF-8
Codec ID : S_TEXT/UTF8
Codec ID/Info : UTF-8 Plain Text
Duration : 1 h 23 min
Bit rate : 66 b/s
Frame rate : 0.175 FPS
Count of elements : 884
Stream size : 41.2 KiB (0%)
Title : Arabic
Language : Arabic
Default : No
Forced : No

Text #4
ID : 7
Format : UTF-8
Codec ID : S_TEXT/UTF8
Codec ID/Info : UTF-8 Plain Text
Duration : 1 h 23 min
Bit rate : 71 b/s
Frame rate : 0.175 FPS
Count of elements : 884
Stream size : 43.7 KiB (0%)
Title : Bulgarian
Language : Bulgarian
Default : No
Forced : No

Text #5
ID : 8
Format : UTF-8
Codec ID : S_TEXT/UTF8
Codec ID/Info : UTF-8 Plain Text
Duration : 1 h 23 min
Bit rate : 42 b/s
Frame rate : 0.175 FPS
Count of elements : 884
Stream size : 26.4 KiB (0%)
Title : Czech
Language : Czech
Default : No
Forced : No

Text #6
ID : 9
Format : UTF-8
Codec ID : S_TEXT/UTF8
Codec ID/Info : UTF-8 Plain Text
Duration : 1 h 23 min
Bit rate : 45 b/s
Frame rate : 0.173 FPS
Count of elements : 874
Stream size : 28.2 KiB (0%)
Title : Danish
Language : Danish
Default : No
Forced : No

Text #7
ID : 10
Format : UTF-8
Codec ID : S_TEXT/UTF8
Codec ID/Info : UTF-8 Plain Text
Duration : 1 h 24 min
Bit rate : 50 b/s
Frame rate : 0.174 FPS
Count of elements : 885
Stream size : 31.6 KiB (0%)
Title : German
Language : German
Default : No
Forced : No

Text #8
ID : 11
Format : UTF-8
Codec ID : S_TEXT/UTF8
Codec ID/Info : UTF-8 Plain Text
Duration : 1 h 23 min
Bit rate : 78 b/s
Frame rate : 0.175 FPS
Count of elements : 884
Stream size : 48.5 KiB (0%)
Title : Greek
Language : Greek
Default : No
Forced : No

Text #9
ID : 12
Format : UTF-8
Codec ID : S_TEXT/UTF8
Codec ID/Info : UTF-8 Plain Text
Duration : 1 h 23 min
Bit rate : 46 b/s
Frame rate : 0.175 FPS
Count of elements : 883
Stream size : 28.4 KiB (0%)
Title : Spanish European
Language : Spanish
Default : No
Forced : No

Text #10
ID : 13
Format : UTF-8
Codec ID : S_TEXT/UTF8
Codec ID/Info : UTF-8 Plain Text
Duration : 1 h 23 min
Bit rate : 41 b/s
Frame rate : 0.175 FPS
Count of elements : 884
Stream size : 25.8 KiB (0%)
Title : Finnish
Language : Finnish
Default : No
Forced : No

Text #11
ID : 14
Format : UTF-8
Codec ID : S_TEXT/UTF8
Codec ID/Info : UTF-8 Plain Text
Duration : 1 h 30 min
Bit rate : 38 b/s
Frame rate : 0.164 FPS
Count of elements : 890
Stream size : 25.2 KiB (0%)
Title : French European
Language : French
Default : No
Forced : No

Text #12
ID : 15
Format : UTF-8
Codec ID : S_TEXT/UTF8
Codec ID/Info : UTF-8 Plain Text
Duration : 1 h 23 min
Bit rate : 110 b/s
Frame rate : 0.175 FPS
Count of elements : 884
Stream size : 68.0 KiB (0%)
Title : Hindi
Language : Hindi
Default : No
Forced : No

Text #13
ID : 16
Format : UTF-8
Codec ID : S_TEXT/UTF8
Codec ID/Info : UTF-8 Plain Text
Duration : 1 h 23 min
Bit rate : 44 b/s
Frame rate : 0.174 FPS
Count of elements : 878
Stream size : 27.4 KiB (0%)
Title : Hungarian
Language : Hungarian
Default : No
Forced : No

Text #14
ID : 17
Format : UTF-8
Codec ID : S_TEXT/UTF8
Codec ID/Info : UTF-8 Plain Text
Duration : 1 h 23 min
Bit rate : 41 b/s
Frame rate : 0.163 FPS
Count of elements : 821
Stream size : 25.4 KiB (0%)
Title : Dutch
Language : Dutch
Default : No
Forced : No

Text #15
ID : 18
Format : UTF-8
Codec ID : S_TEXT/UTF8
Codec ID/Info : UTF-8 Plain Text
Duration : 1 h 23 min
Bit rate : 49 b/s
Frame rate : 0.175 FPS
Count of elements : 884
Stream size : 30.5 KiB (0%)
Title : Norwegian
Language : Norwegian
Default : No
Forced : No

Text #16
ID : 19
Format : UTF-8
Codec ID : S_TEXT/UTF8
Codec ID/Info : UTF-8 Plain Text
Duration : 1 h 23 min
Bit rate : 40 b/s
Frame rate : 0.172 FPS
Count of elements : 866
Stream size : 25.1 KiB (0%)
Title : Polish
Language : Polish
Default : No
Forced : No

Text #17
ID : 20
Format : UTF-8
Codec ID : S_TEXT/UTF8
Codec ID/Info : UTF-8 Plain Text
Duration : 1 h 24 min
Bit rate : 49 b/s
Frame rate : 0.173 FPS
Count of elements : 879
Stream size : 30.5 KiB (0%)
Title : Portuguese European
Language : Portuguese
Default : No
Forced : No

Text #18
ID : 21
Format : UTF-8
Codec ID : S_TEXT/UTF8
Codec ID/Info : UTF-8 Plain Text
Duration : 1 h 23 min
Bit rate : 83 b/s
Frame rate : 0.175 FPS
Count of elements : 884
Stream size : 51.7 KiB (0%)
Title : Russian
Language : Russian
Default : No
Forced : No

Text #19
ID : 22
Format : UTF-8
Codec ID : S_TEXT/UTF8
Codec ID/Info : UTF-8 Plain Text
Duration : 1 h 23 min
Bit rate : 46 b/s
Frame rate : 0.174 FPS
Count of elements : 876
Stream size : 28.7 KiB (0%)
Title : Swedish
Language : Swedish
Default : No
Forced : No

Text #20
ID : 23
Format : UTF-8
Codec ID : S_TEXT/UTF8
Codec ID/Info : UTF-8 Plain Text
Duration : 1 h 23 min
Bit rate : 49 b/s
Frame rate : 0.175 FPS
Count of elements : 880
Stream size : 30.7 KiB (0%)
Title : Turkish
Language : Turkish
Default : No
Forced : No

Text #21
ID : 24
Format : PGS
Muxing mode : zlib
Codec ID : S_HDMV/PGS
Codec ID/Info : Picture based subtitle format used on BDs/HD-DVDs
Duration : 1 h 26 min
Bit rate : 34.2 kb/s
Frame rate : 0.376 FPS
Count of elements : 1942
Stream size : 21.1 MiB (0%)
Title : English
Language : English
Default : No
Forced : No

Text #22
ID : 25
Format : PGS
Muxing mode : zlib
Codec ID : S_HDMV/PGS
Codec ID/Info : Picture based subtitle format used on BDs/HD-DVDs
Duration : 1 h 26 min
Bit rate : 229 b/s
Frame rate : 0.003 FPS
Count of elements : 18
Stream size : 145 KiB (0%)
Title : Spanish
Language : Spanish
Default : No
Forced : No

Menu
00:00:00.000 : en:Chapter 01
00:05:59.150 : en:Chapter 02
00:10:47.814 : en:Chapter 03
00:16:26.361 : en:Chapter 04
00:22:04.574 : en:Chapter 05
00:25:23.148 : en:Chapter 06
00:27:29.941 : en:Chapter 07
00:30:21.613 : en:Chapter 08
00:34:30.820 : en:Chapter 09
00:39:41.297 : en:Chapter 10
00:44:58.698 : en:Chapter 11
00:49:24.756 : en:Chapter 12
00:52:53.256 : en:Chapter 13
00:59:15.388 : en:Chapter 14
01:01:55.256 : en:Chapter 15
01:06:13.473 : en:Chapter 16
01:11:45.930 : en:Chapter 17
01:18:21.868 : en:Chapter 18
01:22:11.973 : en:Chapter 19
01:27:01.179 : en:Chapter 20

为了更好体验下载、推荐使用qBittorrent、uTorrent、BitComet等下载软件,有条件的推荐115或会员下载软件!

下载地址:

游客,如果您要查看本帖隐藏内容请回复
游客,如果您要查看本帖隐藏内容请回复



上一篇:天地大冲撞 / Deep Impact (1998) 4K高清版本下载
下一篇:哥们儿 / Bros (2022) 4K高清版本下载
回复

使用道具 举报

1

主题

1556

帖子

4518

积分

4K家园VIP

Rank: 9Rank: 9Rank: 9

积分
4518
发表于 2022-10-17 20:27:54 | 显示全部楼层
佩服佩服!
回复 支持 反对

使用道具 举报

41

主题

1534

帖子

4399

积分

4K家园VIP

Rank: 9Rank: 9Rank: 9

积分
4399
发表于 2022-10-19 14:24:01 | 显示全部楼层
very good
回复 支持 反对

使用道具 举报

头像被屏蔽

主题

帖子

1017

积分

禁止访问

积分
1017
发表于 2022-10-19 22:58:42 | 显示全部楼层
提示: 作者被禁止或删除 内容自动屏蔽
回复

使用道具 举报

2

主题

1463

帖子

4241

积分

4K家园VIP

Rank: 9Rank: 9Rank: 9

积分
4241
发表于 2022-10-19 23:20:07 | 显示全部楼层
试试先,好用再说
回复 支持 反对

使用道具 举报

57

主题

1586

帖子

4610

积分

4K家园VIP

Rank: 9Rank: 9Rank: 9

积分
4610
发表于 2022-10-21 13:50:37 | 显示全部楼层
什么东西啊
回复 支持 反对

使用道具 举报

2

主题

1447

帖子

4191

积分

4K家园VIP

Rank: 9Rank: 9Rank: 9

积分
4191
发表于 2022-10-28 00:29:40 | 显示全部楼层
在撸一遍。。。
回复 支持 反对

使用道具 举报

您需要登录后才可以回帖 登录 | 立即注册

本版积分规则

精彩图文
Archiver|手机版|TAG|Sitemap|新帖|专题|联系我们:邮箱: 4kjia.com@gmail.com   

4k家园   ©2019