[4K UHD 蓝光原盘] 神奇动物在哪里 (2016) 4K蓝光REMUX版本下载

[复制链接]

主题

帖子

0

积分

超级版主

Rank: 8Rank: 8

积分
0
 楼主| 发表于 2022-10-17 22:35:35 | 显示全部楼层 |阅读模式
本帖最后由 没完没了 于 2022-10-25 10:42 编辑

QQ图片20221017224617_副本.png

◎译  名 神奇动物在哪里/怪兽与它们的产地(港/台)/神奇生物在哪里/神奇的野兽以及在哪里能找到它们/神兽何处寻(豆友译名)
◎片  名 Fantastic Beasts and Where to Find Them
◎年  代 2016
◎产  地 英国/美国
◎类  别 剧情/奇幻/冒险
◎语  言 英语
◎上映日期 2016-11-25(中国大陆)/2016-11-18(美国/英国)
◎IMDb评分 7.2/10 from 473182 users
◎IMDb链接 https://www.imdb.com/title/tt3183660/
◎豆瓣评分 7.7/10 from 593350 users
◎豆瓣链接 https://movie.douban.com/subject/25726614/
◎导  演 大卫·叶茨 David Yates
◎编  剧 J. K. 罗琳 J. K. Rowling
◎主  演 埃迪·雷德梅恩 Eddie Redmayne
       凯瑟琳·沃特斯顿 Katherine Waterston
       丹·福勒 Dan Fogler
       艾莉森·萨多尔 Alison Sudol
       科林·法瑞尔 Colin Farrell
       埃兹拉·米勒 Ezra Miller
       朗·普尔曼 Ron Perlman
       强·沃特 Jon Voight
       萨曼莎·莫顿 Samantha Morton
       嘉玛·陈 Gemma Chan
       卡门·艾乔戈 Carmen Ejogo
       克里斯汀·马扎诺 Christine Marzano
       詹·穆瑞 Jenn Murray
       约翰尼·德普 Johnny Depp
       芙洛·费拉科 Flor Ferraco
       埃里克·海登 Erick Hayden
       费丝·伍德-布拉格罗夫 Faith Wood-Blagrove
       露西·波尔 Lucie Pohl
       克里斯蒂·梅尔 Christy Meyer
       布莱恩F.穆尔维 Brian F. Mulvey
       所罗门·塔伊沃·贾斯提费尔德 Solomon Taiwo Justified
       克里斯蒂安·索利诺 Cristian Solimeno
       丹·哈达亚 Dan Hedaya
       多米尼克·蒂珀 Dominique Tipper
       凯文·格思里 Kevin Guthrie
       罗南·拉夫特瑞 Ronan Raftery
       乌米·马萨库 Wunmi Mosaku
       阿金·加齐 Akin Gazi


◎简  介


  故事发生在1926年的纽约,彼时,麻鸡们对魔法师的抵制达到了最高峰,由玛丽露(萨曼莎·莫顿 Samantha Morton 饰)所领导的反魔法组织活动频繁。与此同时,街头巷尾之中时时发生的种种灾难意外让魔法世界的存在离暴露仅有一线之隔,整个魔法部陷入了空前紧张的气氛之中。
  就在这个节骨眼上,环游世界进行着研究神奇魔法动物之行动的魔法动物学家纽特(埃迪·雷德梅恩 Eddie Redmayne 饰)抵达了纽约,他随身携带的魔法手提箱里,装着几十种他一路营救的魔法动物们,而他的一举一动,均处于隶属于魔法部的前傲罗蒂娜(凯瑟琳·沃特森 Katherine Waterston 饰)的监视之下。一场意外中,麻鸡雅各布(丹·福格勒 Dan Fogler 饰)误拿了纽特的手提箱,并且放出了藏在箱子里的魔法动物,为此,纽特、蒂娜、雅各布和蒂娜的妹妹奎妮(艾莉森·苏朵儿 Alison Sudol 饰)不得不踏上了寻找魔法动物的旅途。

◎获奖情况

  第89届奥斯卡金像奖(2017)
  最佳艺术指导(提名)
  最佳服装设计

  第70届英国电影学院奖(2017)
  电影奖 最佳英国影片(提名)
  电影奖 最佳服装设计(提名)
  电影奖 最佳艺术指导
  电影奖 最佳特殊视觉效果(提名)
  电影奖 最佳音效(提名)

  第21届美国艺术指导工会奖(2017)
  电影奖 最佳幻想电影艺术指导(提名)

  第19届美国服装设计工会奖(2017)
  科幻/奇幻题材电影最佳服装设计(提名)

  第15届美国视觉效果协会奖(2017)
  最佳特效电影视觉效果(提名)
  最佳真人电影CG动画角色(提名)
  最佳广告/广播节目CG动画角色(提名)

  第22届美国评论家选择电影奖(2017)
  最佳美术指导(提名)
  最佳服装设计(提名)
  最佳发型化妆(提名)
  最佳视觉效果(提名)

  第15届华盛顿影评人协会奖(2016)
  最佳艺术指导(提名)

  第3届豆瓣电影年度榜单(2016)
  评分最高的外语电影(提名)
  最受关注的院线电影(提名)
  评分最高的欧洲电影(提名)
  11月最受关注电影(提名)

Video
ID : 1
ID in the original source medium : 4113 (0x1011)
Format : HEVC
Format/Info : High Efficiency Video Coding
Format profile : Main 10@L5.1@High
HDR format : SMPTE ST 2086, HDR10 compatible
Codec ID : V_MPEGH/ISO/HEVC
Duration : 2 h 12 min
Bit rate : 49.9 Mb/s
Width : 3 840 pixels
Height : 2 160 pixels
Display aspect ratio : 16:9
Frame rate mode : Constant
Frame rate : 23.976 (24000/1001) FPS
Color space : YUV
Chroma subsampling : 4:2:0 (Type 2)
Bit depth : 10 bits
Bits/(Pixel*Frame) : 0.251
Stream size : 46.3 GiB (84%)
Writing library : ATEME Titan File 3.7.8 (4.7.8.0)
Language : English
Default : No
Forced : No
Color range : Limited
Color primaries : BT.2020
Transfer characteristics : PQ
Matrix coefficients : BT.2020 non-constant
Mastering display color primaries : Display P3
Mastering display luminance : min: 0.0050 cd/m2, max: 4000 cd/m2
Maximum Content Light Level : 3173 cd/m2
Maximum Frame-Average Light Level : 484 cd/m2
Original source medium : Blu-ray

Audio #1
ID : 2
ID in the original source medium : 4352 (0x1100)
Format : MLP FBA 16-ch
Format/Info : Meridian Lossless Packing FBA with 16-channel presentation
Commercial name : Dolby TrueHD with Dolby Atmos
Codec ID : A_TRUEHD
Duration : 2 h 12 min
Bit rate mode : Variable
Bit rate : 3 951 kb/s
Maximum bit rate : 7 563 kb/s
Channel(s) : 8 channels
Channel layout : L R C LFE Ls Rs Lb Rb
Sampling rate : 48.0 kHz
Frame rate : 1 200.000 FPS (40 SPF)
Bit depth : 24 bits
Compression mode : Lossless
Stream size : 3.67 GiB (7%)
Title : TrueHD 7.1 Atmos
Language : English
Default : Yes
Forced : No
Original source medium : Blu-ray
Number of dynamic objects : 11
Bed channel count : 1 channel
Bed channel configuration : LFE

Audio #2
ID : 3
Format : DTS XLL
Format/Info : Digital Theater Systems
Commercial name : DTS-HD Master Audio
Codec ID : A_DTS
Duration : 2 h 12 min
Bit rate mode : Variable
Bit rate : 3 702 kb/s
Channel(s) : 8 channels
Channel layout : C L R LFE Lb Rb Lss Rss
Sampling rate : 48.0 kHz
Frame rate : 93.750 FPS (512 SPF)
Bit depth : 24 bits
Compression mode : Lossless
Stream size : 3.44 GiB (6%)
Title : DTS-HD MA 7.1
Language : English
Default : No
Forced : No

Audio #3
ID : 4
ID in the original source medium : 4352 (0x1100)
Format : AC-3
Format/Info : Audio Coding 3
Commercial name : Dolby Digital
Format settings : Dolby Surround EX
Codec ID : A_AC3
Duration : 2 h 12 min
Bit rate mode : Constant
Bit rate : 448 kb/s
Channel(s) : 6 channels
Channel layout : L R C LFE Ls Rs
Sampling rate : 48.0 kHz
Frame rate : 31.250 FPS (1536 SPF)
Compression mode : Lossy
Stream size : 426 MiB (1%)
Title : DD 5.1
Language : English
Service kind : Complete Main
Default : No
Forced : No
Original source medium : Blu-ray

Audio #4
ID : 5
ID in the original source medium : 4354 (0x1102)
Format : AC-3
Format/Info : Audio Coding 3
Commercial name : Dolby Digital
Codec ID : A_AC3
Duration : 2 h 12 min
Bit rate mode : Constant
Bit rate : 448 kb/s
Channel(s) : 6 channels
Channel layout : L R C LFE Ls Rs
Sampling rate : 48.0 kHz
Frame rate : 31.250 FPS (1536 SPF)
Compression mode : Lossy
Stream size : 426 MiB (1%)
Title : DD 5.1
Language : English
Service kind : Complete Main
Default : No
Forced : No
Original source medium : Blu-ray

Audio #5
ID : 6
ID in the original source medium : 4355 (0x1103)
Format : AC-3
Format/Info : Audio Coding 3
Commercial name : Dolby Digital
Codec ID : A_AC3
Duration : 2 h 12 min
Bit rate mode : Constant
Bit rate : 448 kb/s
Channel(s) : 6 channels
Channel layout : L R C LFE Ls Rs
Sampling rate : 48.0 kHz
Frame rate : 31.250 FPS (1536 SPF)
Compression mode : Lossy
Stream size : 426 MiB (1%)
Title : DD 5.1
Language : Spanish
Service kind : Complete Main
Default : No
Forced : No
Original source medium : Blu-ray

Audio #6
ID : 7
ID in the original source medium : 4356 (0x1104)
Format : AC-3
Format/Info : Audio Coding 3
Commercial name : Dolby Digital
Codec ID : A_AC3
Duration : 2 h 12 min
Bit rate mode : Constant
Bit rate : 448 kb/s
Channel(s) : 6 channels
Channel layout : L R C LFE Ls Rs
Sampling rate : 48.0 kHz
Frame rate : 31.250 FPS (1536 SPF)
Compression mode : Lossy
Stream size : 426 MiB (1%)
Title : DD 5.1
Language : Catalan
Service kind : Complete Main
Default : No
Forced : No
Original source medium : Blu-ray

Text #1
ID : 8
Format : UTF-8
Codec ID : S_TEXT/UTF8
Codec ID/Info : UTF-8 Plain Text
Duration : 2 h 10 min
Bit rate : 37 b/s
Frame rate : 0.164 FPS
Count of elements : 1284
Stream size : 36.4 KiB (0%)
Language : English
Default : Yes
Forced : No

Text #2
ID : 9
Format : UTF-8
Codec ID : S_TEXT/UTF8
Codec ID/Info : UTF-8 Plain Text
Duration : 2 h 11 min
Bit rate : 43 b/s
Frame rate : 0.200 FPS
Count of elements : 1579
Stream size : 41.5 KiB (0%)
Title : SDH
Language : English
Default : No
Forced : No

Text #3
ID : 10
ID in the original source medium : 4769 (0x12A1)
Format : PGS
Muxing mode : zlib
Codec ID : S_HDMV/PGS
Codec ID/Info : Picture based subtitle format used on BDs/HD-DVDs
Duration : 2 h 11 min
Bit rate : 26.8 kb/s
Frame rate : 0.405 FPS
Count of elements : 3198
Stream size : 25.2 MiB (0%)
Language : English
Default : No
Forced : No
Original source medium : Blu-ray

Text #4
ID : 11
ID in the original source medium : 4771 (0x12A3)
Format : PGS
Muxing mode : zlib
Codec ID : S_HDMV/PGS
Codec ID/Info : Picture based subtitle format used on BDs/HD-DVDs
Duration : 2 h 12 min
Bit rate : 21.7 kb/s
Frame rate : 0.322 FPS
Count of elements : 2562
Stream size : 20.5 MiB (0%)
Language : Spanish
Default : No
Forced : No
Original source medium : Blu-ray

Text #5
ID : 12
ID in the original source medium : 4772 (0x12A4)
Format : PGS
Muxing mode : zlib
Codec ID : S_HDMV/PGS
Codec ID/Info : Picture based subtitle format used on BDs/HD-DVDs
Duration : 2 h 12 min
Bit rate : 21.3 kb/s
Frame rate : 0.330 FPS
Count of elements : 2622
Stream size : 20.2 MiB (0%)
Language : Croatian
Default : No
Forced : No
Original source medium : Blu-ray

Text #6
ID : 13
ID in the original source medium : 4773 (0x12A5)
Format : PGS
Muxing mode : zlib
Codec ID : S_HDMV/PGS
Codec ID/Info : Picture based subtitle format used on BDs/HD-DVDs
Duration : 2 h 12 min
Bit rate : 20.5 kb/s
Frame rate : 0.257 FPS
Count of elements : 2040
Stream size : 19.4 MiB (0%)
Language : Danish
Default : No
Forced : No
Original source medium : Blu-ray

Text #7
ID : 14
ID in the original source medium : 4774 (0x12A6)
Format : PGS
Muxing mode : zlib
Codec ID : S_HDMV/PGS
Codec ID/Info : Picture based subtitle format used on BDs/HD-DVDs
Duration : 2 h 12 min
Bit rate : 20.7 kb/s
Frame rate : 0.328 FPS
Count of elements : 2610
Stream size : 19.6 MiB (0%)
Language : Finnish
Default : No
Forced : No
Original source medium : Blu-ray

Text #8
ID : 15
ID in the original source medium : 4775 (0x12A7)
Format : PGS
Muxing mode : zlib
Codec ID : S_HDMV/PGS
Codec ID/Info : Picture based subtitle format used on BDs/HD-DVDs
Duration : 2 h 12 min
Bit rate : 23.2 kb/s
Frame rate : 0.330 FPS
Count of elements : 2628
Stream size : 22.0 MiB (0%)
Language : Greek
Default : No
Forced : No
Original source medium : Blu-ray

Text #9
ID : 16
ID in the original source medium : 4776 (0x12A8)
Format : PGS
Muxing mode : zlib
Codec ID : S_HDMV/PGS
Codec ID/Info : Picture based subtitle format used on BDs/HD-DVDs
Duration : 2 h 12 min
Bit rate : 21.1 kb/s
Frame rate : 0.333 FPS
Count of elements : 2650
Stream size : 20.0 MiB (0%)
Language : Norwegian
Default : No
Forced : No
Original source medium : Blu-ray

Text #10
ID : 17
ID in the original source medium : 4777 (0x12A9)
Format : PGS
Muxing mode : zlib
Codec ID : S_HDMV/PGS
Codec ID/Info : Picture based subtitle format used on BDs/HD-DVDs
Duration : 2 h 12 min
Bit rate : 18.7 kb/s
Frame rate : 0.252 FPS
Count of elements : 2006
Stream size : 17.7 MiB (0%)
Language : Slovenian
Default : No
Forced : No
Original source medium : Blu-ray

Text #11
ID : 18
ID in the original source medium : 4778 (0x12AA)
Format : PGS
Muxing mode : zlib
Codec ID : S_HDMV/PGS
Codec ID/Info : Picture based subtitle format used on BDs/HD-DVDs
Duration : 2 h 12 min
Bit rate : 21.7 kb/s
Frame rate : 0.331 FPS
Count of elements : 2630
Stream size : 20.6 MiB (0%)
Language : Swedish
Default : No
Forced : No
Original source medium : Blu-ray

Text #12
ID : 19
ID in the original source medium : 4779 (0x12AB)
Format : PGS
Muxing mode : zlib
Codec ID : S_HDMV/PGS
Codec ID/Info : Picture based subtitle format used on BDs/HD-DVDs
Duration : 2 h 12 min
Bit rate : 765 b/s
Frame rate : 0.008 FPS
Count of elements : 64
Stream size : 744 KiB (0%)
Language : Spanish
Default : No
Forced : No
Original source medium : Blu-ray

新种推荐使用qBittorrent、uTorrent、BitComet等下载软件,有条件的推荐115更好的下载软件!
神奇动物在哪里(55.19GB)
Fantastic.Beasts.and.Where.to.Find.Them.2016.PROPER.2160p.BluRay.REMUX.HEVC.DTS-HD.MA.TrueHD.7.1.Atmos-FGT-【2160P蓝光REMUX】
游客,如果您要查看本帖隐藏内容请回复

神奇动物在哪里(11.54GB)
Fantastic.Beasts.and.Where.to.Find.Them.2016.2160p.UHD.BluRay.x265.10bit.HDR.TrueHD.7.1.Atmos
游客,如果您要查看本帖隐藏内容请回复

神奇动物在哪里(8.16GB)
Fantastic.Beasts.and.Where.to.Find.Them.2016.2160p.UHD.BluRay.x265.10bit.HDR.DDP5.1.Atmos
游客,如果您要查看本帖隐藏内容请回复



4K海报.gif


上一篇:哈利·波特 (2001-2011) 8部大汇集 4K蓝光REMUX版本下载
下一篇:神奇动物:格林德沃之罪 (2018) 4K蓝光REMUX版本下载
回复

使用道具 举报

5

主题

1729

帖子

4762

积分

4K家园VIP

Rank: 9Rank: 9Rank: 9

积分
4762
发表于 2022-10-17 22:35:43 | 显示全部楼层
还有没有别的资源,多分享些
回复 支持 反对

使用道具 举报

主题

帖子

6

积分

新手上路

Rank: 1

积分
6
发表于 2022-10-18 07:56:47 | 显示全部楼层
谢谢分享,楼主好人
回复 支持 反对

使用道具 举报

0

主题

1518

帖子

4368

积分

4K家园VIP

Rank: 9Rank: 9Rank: 9

积分
4368
发表于 2022-10-21 11:47:03 | 显示全部楼层
4K家园不错,希望这种资源越多越好
回复 支持 反对

使用道具 举报

主题

帖子

22

积分

新手上路

Rank: 1

积分
22
发表于 2022-10-21 13:42:39 | 显示全部楼层
哇塞,真的错
回复 支持 反对

使用道具 举报

主题

帖子

27

积分

新手上路

Rank: 1

积分
27
发表于 2022-10-22 21:18:19 | 显示全部楼层
谢谢分享。
回复

使用道具 举报

3

主题

1429

帖子

4117

积分

4K家园VIP

Rank: 9Rank: 9Rank: 9

积分
4117
发表于 2022-10-23 03:55:43 | 显示全部楼层
前排顶起
回复 支持 反对

使用道具 举报

3

主题

1452

帖子

4198

积分

4K家园VIP

Rank: 9Rank: 9Rank: 9

积分
4198
发表于 2022-10-25 16:46:57 | 显示全部楼层
前排顶起
回复 支持 反对

使用道具 举报

4

主题

1400

帖子

4219

积分

4K家园VIP

Rank: 9Rank: 9Rank: 9

积分
4219
发表于 2022-10-28 13:21:30 来自手机 | 显示全部楼层
楼猪辛苦了,支持一下分享好资源
回复 支持 反对

使用道具 举报

您需要登录后才可以回帖 登录 | 立即注册

本版积分规则

精彩图文
Archiver|手机版|TAG|Sitemap|新帖|专题|联系我们:邮箱: 4kjia.com@gmail.com   

4k家园   ©2019