[4K美女视频] 2019 TRE 性感JKF女郎人肉战车 [2160P /MP4/424MB]

[复制链接]

1079

主题

1218

帖子

7648

积分

超级版主

Rank: 8Rank: 8

积分
7648
 楼主| 发表于 2019-8-13 13:58:43 | 显示全部楼层 |阅读模式
本帖最后由 叽里呱啦 于 2019-8-13 13:58 编辑

2019 TRE 成人展性感JKF女郎人肉战车.mp4_20190811_162528.969_meitu_1.jpg 2019 TRE 成人展性感JKF女郎人肉战车.mp4_20190811_162543.333_meitu_2.jpg 2019 TRE 成人展性感JKF女郎人肉战车.mp4_20190811_162555.086_meitu_3.jpg 2019 TRE 成人展性感JKF女郎人肉战车.mp4_20190811_162600.894_meitu_4.jpg

General
Complete name                  :
2019 TRE 成人展性感JKF女郎人肉战车.mp4
Format                         : MPEG-4
Format profile                 : Base Media
Codec ID                       : isom (isom/iso2/avc1/mp41)
File size                      : 424 MiB
Duration                       : 3 min 51 s
Overall bit rate               : 15.4 Mb/s
Writing application            : Lavf58.12.100

Video
ID                             : 1
Format                         : AVC
Format/Info                    : Advanced Video Codec
Format profile                 : [email protected]
Format settings                : CABAC / 4 Ref Frames
Format settings, CABAC         : Yes
Format settings, Reference fra : 4 frames
Codec ID                       : avc1
Codec ID/Info                  : Advanced Video Coding
Duration                       : 3 min 51 s
Bit rate                       : 15.0 Mb/s
Width                          : 3 840 pixels
Height                         : 2 160 pixels
Display aspect ratio           : 16:9
Frame rate mode                : Constant
Frame rate                     : 29.000 FPS
Color space                    : YUV
Chroma subsampling             : 4:2:0
Bit depth                      : 8 bits
Scan type                      : Progressive
Bits/(Pixel*Frame)             : 0.062
Stream size                    : 420 MiB (99%)
Writing library                : x264 core 148
Encoding settings              : cabac=1 / ref=3 / deblock=1:0:0 / analyse=0x3:0x113 / me=hex / subme=7 / psy=1 / psy_rd=1.00:0.00 / mixed_ref=1 / me_range=16 / chroma_me=1 / trellis=1 / 8x8dct=1 / cqm=0 / deadzone=21,11 / fast_pskip=1 / chroma_qp_offset=-2 / threads=6 / lookahead_threads=1 / sliced_threads=0 / nr=0 / decimate=1 / interlaced=0 / bluray_compat=0 / constrained_intra=0 / bframes=3 / b_pyramid=2 / b_adapt=1 / b_bias=0 / direct=1 / weightb=1 / open_gop=0 / weightp=2 / keyint=250 / keyint_min=25 / scenecut=40 / intra_refresh=0 / rc_lookahead=40 / rc=abr / mbtree=1 / bitrate=15000 / ratetol=1.0 / qcomp=0.60 / qpmin=0 / qpmax=69 / qpstep=4 / ip_ratio=1.40 / aq=1:1.00
Language                       : English
Codec configuration box        : avcC

Audio
ID                             : 2
Format                         : AAC LC
Format/Info                    : Advanced Audio Codec Low Complexity
Codec ID                       : mp4a-40-2
Duration                       : 3 min 51 s
Duration_LastFrame             : -15 ms
Bit rate mode                  : Constant
Bit rate                       : 129 kb/s
Channel(s)                     : 2 channels
Channel layout                 : L R
Sampling rate                  : 44.1 kHz
Frame rate                     : 43.066 FPS (1024 SPF)
Compression mode               : Lossy
Stream size                    : 3.54 MiB (1%)
Language                       : English
Default                        : Yes
Alternate group                : 1

2019 TRE 成人展性感JKF女郎人肉战车.mp4.jpg

网盘下载失效不补:链接: https://pan.baidu.com/s/1Nx5Mjcv_JMbpbzoZVRTWtg
****此区域为收费内容****    需支付 15 金币后可查看立即购买





.



上一篇:2019 TRE 性感JKF女郎走秀7[2160P/MP4/712MB]
下一篇:2019 TRE 性感JKF女郎热舞1 [2160P/MP4/512MB]
回复

使用道具 举报

0

主题

965

帖子

2739

积分

4K家园VIP

Rank: 9Rank: 9Rank: 9

积分
2739
发表于 2019-8-13 13:58:48 | 显示全部楼层
专业抢沙发的!哈哈
回复 支持 反对

使用道具 举报

0

主题

941

帖子

2792

积分

4K家园VIP

Rank: 9Rank: 9Rank: 9

积分
2792
发表于 2019-8-13 13:58:50 | 显示全部楼层
还有没有别的资源,多分享些
回复 支持 反对

使用道具 举报

0

主题

375

帖子

2654

积分

4K家园VIP

Rank: 9Rank: 9Rank: 9

积分
2654
QQ
发表于 2019-8-13 14:05:15 | 显示全部楼层
强烈支持了!
回复 支持 反对

使用道具 举报

0

主题

1066

帖子

3046

积分

4K家园VIP

Rank: 9Rank: 9Rank: 9

积分
3046
发表于 7 天前 | 显示全部楼层
感谢分享
回复 支持 反对

使用道具 举报

51

主题

1085

帖子

3093

积分

4K家园VIP

Rank: 9Rank: 9Rank: 9

积分
3093
发表于 7 天前 | 显示全部楼层
前排支持下了哦~
回复 支持 反对

使用道具 举报

0

主题

958

帖子

2706

积分

4K家园VIP

Rank: 9Rank: 9Rank: 9

积分
2706
发表于 6 天前 | 显示全部楼层
楼主这资源不错,我收藏了
回复 支持 反对

使用道具 举报

您需要登录后才可以回帖 登录 | 立即注册

本版积分规则

精彩图文
关闭

站长推荐上一条 /1 下一条

4k家园   ©2019