[4K电影] 哥们儿 / Bros (2022) 4K高清版本下载

[复制链接]

主题

帖子

0

积分

超级版主

Rank: 8Rank: 8

积分
0
 楼主| 发表于 2022-10-18 21:05:31 | 显示全部楼层 |阅读模式
本帖最后由 最爱4K哟 于 2022-10-28 11:03 编辑

QQ图片20221018205645_副本.png

◎标  题 哥儿们
◎译  名 兄弟
◎片  名 Bros
◎年  代 2022
◎产  地 美国
◎类  别 喜剧 / 爱情
◎语  言 英语
◎上映日期 2022-09-10(多伦多电影节) / 2022-09-30(美国)
◎IMDb评分 6/10 (5276人评价)
◎IMDb链接 https://www.imdb.com/title/tt9731598/
◎豆瓣链接 https://movie.douban.com/subject/35017155/
◎片  长 115分钟
◎导  演 尼古拉斯·斯托勒 Nicholas Stoller
◎编  剧 比利·艾希纳 Billy Eichner / 尼古拉斯·斯托勒 Nicholas Stoller
◎演  员 比利·艾希纳 Billy Eichner
       卢克·马可法莱恩 Luke Macfarlane
       盖伊·布兰纳姆 Guy Branum
       密斯·劳伦斯 Miss Lawrence
       茨·麦迪逊 Ts Madison
       多特-玛丽·琼斯 Dot-Marie Jones
       吉姆·拉什 Jim Rash
       爱娃林德丽 Eve Lindley
       莫妮卡·雷蒙德 Monica Raymund
       古列雷莫·迪亚兹 Guillermo Díaz
       杰·罗德里格斯 Jai Rodriguez
       阿曼达·比尔斯 Amanda Bearse
       黛博拉·梅辛 Debra Messing
       彼得·Y·金 Peter Y. Kim
       贾斯汀·科文顿 Justin Covington
       瑞安·福塞特 Ryan Faucett
       哈维·费斯特恩 Harvey Fierstein
       杨伯文 Bowen Yang
       乔治·德沃尔斯基 George Dvorsky
       布罗克·恰尔列利 Brock Ciarlelli
       基南·汤普森 Kenan Thompson
       艾米·舒默 Amy Schumer
       埃弗里特·昆顿 Everett Quinton
       克里斯汀·肯诺恩斯 Kristin Chenoweth
       香农·帕特里夏·奥尼尔 Shannon Patricia O'Neill
       马修·威尔卡斯 Matthew Wilkas
       贝尼托·斯金纳 Benito Skinner
       乔安妮·兰斯坦 Joanne Lamstein
       练克丽丝·卡弗尔 Chris Carver
       本·斯蒂勒 Ben Stiller
       柯克·凯利 Kirk Kelly
       汤姆·布罗克尔 Tom Broecker


◎简  介


  今年秋天,环球影业将骄傲地推出首部好莱坞主要电影公司制作,关于两名男同志,也许、可能、大概将会坠入爱河的爱情喜剧片。也许吧。不管怎样,他们都会非常忙碌。
喜剧天才比利·艾希纳、杰出的卖座电影导演尼古拉斯·斯托勒以及金牌喜剧导演/制片贾德·阿帕图共同打造《哥儿们》一片,这是一部在这个疯狂世界关于性、爱情及浪漫情怀,极具巧思、心醉神迷和暖心动人的喜剧片。

Video
ID : 1
Format : HEVC
Format/Info : High Efficiency Video Coding
Format profile : Main 10@L5@High
HDR format : SMPTE ST 2086, HDR10 compatible
Codec ID : V_MPEGH/ISO/HEVC
Duration : 1 h 55 min
Bit rate : 24.5 Mb/s
Width : 3 840 pixels
Height : 1 600 pixels
Display aspect ratio : 2.40:1
Frame rate mode : Constant
Frame rate : 23.976 FPS
Color space : YUV
Chroma subsampling : 4:2:0 (Type 2)
Bit depth : 10 bits
Bits/(Pixel*Frame) : 0.166
Stream size : 19.7 GiB (97%)
Default : Yes
Forced : No
Color range : Limited
Color primaries : BT.2020
Transfer characteristics : PQ
Matrix coefficients : BT.2020 non-constant
Mastering display color primaries : Display P3
Mastering display luminance : min: 0.0050 cd/m2, max: 4000 cd/m2
Maximum Content Light Level : 1018 cd/m2
Maximum Frame-Average Light Level : 997 cd/m2

Audio
ID : 2
Format : E-AC-3 JOC
Format/Info : Enhanced AC-3 with Joint Object Coding
Commercial name : Dolby Digital Plus with Dolby Atmos
Codec ID : A_EAC3
Duration : 1 h 55 min
Bit rate mode : Constant
Bit rate : 768 kb/s
Channel(s) : 6 channels
Channel layout : L R C LFE Ls Rs
Sampling rate : 48.0 kHz
Frame rate : 31.250 FPS (1536 SPF)
Compression mode : Lossy
Stream size : 634 MiB (3%)
Language : English
Service kind : Complete Main
Default : Yes
Forced : No
Complexity index : 16
Number of dynamic objects : 15
Bed channel count : 1 channel
Bed channel configuration : LFE

Text #1
ID : 3
Format : UTF-8
Codec ID : S_TEXT/UTF8
Codec ID/Info : UTF-8 Plain Text
Duration : 1 h 51 min
Bit rate : 98 b/s
Frame rate : 0.386 FPS
Count of elements : 2591
Stream size : 80.3 KiB (0%)
Language : English
Default : Yes
Forced : No

Text #2
ID : 4
Format : UTF-8
Codec ID : S_TEXT/UTF8
Codec ID/Info : UTF-8 Plain Text
Duration : 1 h 55 min
Bit rate : 102 b/s
Frame rate : 0.402 FPS
Count of elements : 2784
Stream size : 86.3 KiB (0%)
Title : SDH
Language : English
Default : No
Forced : No

为了更好体验下载、推荐使用qBittorrent、uTorrent、BitComet等下载软件,有条件的推荐115或会员下载软件!

下载地址:

游客,如果您要查看本帖隐藏内容请回复

游客,如果您要查看本帖隐藏内容请回复

游客,如果您要查看本帖隐藏内容请回复

游客,如果您要查看本帖隐藏内容请回复

游客,如果您要查看本帖隐藏内容请回复

游客,如果您要查看本帖隐藏内容请回复

游客,如果您要查看本帖隐藏内容请回复

游客,如果您要查看本帖隐藏内容请回复





上一篇:良种动物 / Thoroughbreds (2017) 4K高清版本下载
下一篇:他的秘密生活 / The.Ignorant.Fairies (2022) 4K高清版本下载
回复

使用道具 举报

81

主题

1621

帖子

4709

积分

4K家园VIP

Rank: 9Rank: 9Rank: 9

积分
4709
发表于 2022-10-18 21:05:36 | 显示全部楼层
顶顶更健康
回复 支持 反对

使用道具 举报

48

主题

1592

帖子

4648

积分

4K家园VIP

Rank: 9Rank: 9Rank: 9

积分
4648
发表于 2022-10-19 13:42:35 | 显示全部楼层
不错 支持一个了
回复 支持 反对

使用道具 举报

41

主题

1534

帖子

4399

积分

4K家园VIP

Rank: 9Rank: 9Rank: 9

积分
4399
发表于 2022-10-19 17:24:30 | 显示全部楼层
沙发???
回复 支持 反对

使用道具 举报

主题

帖子

6

积分

新手上路

Rank: 1

积分
6
发表于 2022-10-19 18:45:45 | 显示全部楼层

顶顶顶顶顶顶
回复 支持 反对

使用道具 举报

3

主题

1390

帖子

4192

积分

4K家园VIP

Rank: 9Rank: 9Rank: 9

积分
4192
发表于 2022-10-20 00:18:08 来自手机 | 显示全部楼层
有空一起交流一下
回复 支持 反对

使用道具 举报

3

主题

1345

帖子

4056

积分

4K家园VIP

Rank: 9Rank: 9Rank: 9

积分
4056
发表于 2022-10-20 06:40:25 | 显示全部楼层
我只是看看啊,不说话
回复 支持 反对

使用道具 举报

主题

帖子

9

积分

新手上路

Rank: 1

积分
9
发表于 2022-10-20 20:47:25 | 显示全部楼层
感谢楼主
回复

使用道具 举报

主题

帖子

9

积分

新手上路

Rank: 1

积分
9
发表于 2022-10-20 20:48:46 | 显示全部楼层
谢谢分享
回复

使用道具 举报

主题

帖子

6

积分

新手上路

Rank: 1

积分
6
发表于 2022-10-21 05:02:30 | 显示全部楼层
谢谢分享~~
回复

使用道具 举报

您需要登录后才可以回帖 登录 | 立即注册

本版积分规则

精彩图文
Archiver|手机版|TAG|Sitemap|新帖|专题|联系我们:邮箱: 4kjia.com@gmail.com   

4k家园   ©2019