[4K电影] 性别之战 / Battle of the Sexes (2017) 4K高清版本下载

[复制链接]

主题

帖子

0

积分

超级版主

Rank: 8Rank: 8

积分
0
 楼主| 发表于 2022-10-19 20:32:17 | 显示全部楼层 |阅读模式

QQ图片20221019202833_副本.png

◎标  题 性别之战
◎译  名 男女单打战(港) / 胜负反手拍(台) / 性别大战
◎片  名 Battle of the Sexes
◎年  代 2017
◎产  地 美国 / 英国
◎类  别 喜剧 / 同性 / 传记 / 运动
◎语  言 英语
◎上映日期 2017-09-02(特柳赖德电影节) / 2017-09-29(美国)
◎IMDb评分 6.7/10 from 56050 users 更新 : 2022-10-17
◎IMDb链接 https://www.imdb.com/title/tt4622512/
◎豆瓣评分 6.7/10 from 9645 users 更新 : 2022-10-19
◎豆瓣链接 https://movie.douban.com/subject/26372319/
◎片  长 121分钟
◎导  演 乔纳森·戴顿 Jonathan Dayton / 维莱莉·法瑞斯 Valerie Faris
◎编  剧 西蒙·博福伊 Simon Beaufoy
◎演  员 艾玛·斯通 Emma Stone
       史蒂夫·卡瑞尔 Steve Carell
       安德丽娅·赖斯伯勒 Andrea Riseborough
       娜塔丽·莫瑞丝 Natalie Morales
       萨拉·西尔弗曼 Sarah Silverman
       比尔·普尔曼 Bill Pullman
       艾伦·卡明 Alan Cumming
       伊丽莎白·苏 Elisabeth Shue
       艾瑞克·克里斯蒂安·奥森 Eric Christian Olsen
       弗莱德·阿米森 Fred Armisen
       玛莎·麦萨克 Martha MacIsaac
       米奇·萨姆纳 Mickey Sumner
       杰西卡·麦克娜美 Jessica McNamee
       詹姆斯·麦凯 James Mackay
       奇普·齐纳里 Chip Chinery
       奥斯汀·斯托维尔 Austin Stowell


◎简  介


    Steve Carell与Emma Stone将合作影片《BATTLE OF THE SEXES》,影片会由《阳光小美女》的导演 乔纳森·戴顿与维莱莉·法瑞斯执导。关于1973年女子网球选手比利·简·金与Bobby Riggs的跨性别网球大战,这场比赛以金的获胜结束,比赛有着非常重要的意义,包括让女性获得更大的自尊。

Video
ID : 1
Format : HEVC
Format/Info : High Efficiency Video Coding
Format profile : Main 10@L5@Main
Codec ID : V_MPEGH/ISO/HEVC
Duration : 2 h 1 min
Bit rate : 24.3 Mb/s
Width : 3 840 pixels
Height : 2 160 pixels
Display aspect ratio : 16:9
Frame rate mode : Constant
Frame rate : 23.976 (24000/1001) FPS
Color space : YUV
Chroma subsampling : 4:2:0 (Type 2)
Bit depth : 10 bits
Bits/(Pixel*Frame) : 0.122
Stream size : 20.6 GiB (83%)
Language : English
Default : Yes
Forced : No
Color range : Limited
Color primaries : BT.709
Transfer characteristics : BT.709
Matrix coefficients : BT.709

Audio #1
ID : 2
Format : DTS XLL
Format/Info : Digital Theater Systems
Commercial name : DTS-HD Master Audio
Codec ID : A_DTS
Duration : 2 h 1 min
Bit rate mode : Variable
Bit rate : 4 589 kb/s
Channel(s) : 8 channels
Channel layout : C L R LFE Lb Rb Lss Rss
Sampling rate : 48.0 kHz
Frame rate : 93.750 FPS (512 SPF)
Bit depth : 24 bits
Compression mode : Lossless
Stream size : 3.90 GiB (16%)
Title : DTS-HD Master Audio / 7.1 / 48 kHz / 4589 kbps / 24-bit
Language : English
Default : Yes
Forced : No

Audio #2
ID : 3
Format : AC-3
Format/Info : Audio Coding 3
Commercial name : Dolby Digital
Codec ID : A_AC3
Duration : 2 h 1 min
Bit rate mode : Constant
Bit rate : 384 kb/s
Channel(s) : 6 channels
Channel layout : L R C LFE Ls Rs
Sampling rate : 48.0 kHz
Frame rate : 31.250 FPS (1536 SPF)
Compression mode : Lossy
Stream size : 334 MiB (1%)
Title : Compatibilty
Language : English
Service kind : Complete Main
Default : No
Forced : No

Text #1
ID : 4
Format : UTF-8
Codec ID : S_TEXT/UTF8
Codec ID/Info : UTF-8 Plain Text
Duration : 1 h 58 min
Bit rate : 77 b/s
Frame rate : 0.301 FPS
Count of elements : 2137
Stream size : 67.0 KiB (0%)
Language : English
Default : No
Forced : No

Text #2
ID : 5
Format : UTF-8
Codec ID : S_TEXT/UTF8
Codec ID/Info : UTF-8 Plain Text
Duration : 1 h 58 min
Bit rate : 81 b/s
Frame rate : 0.317 FPS
Count of elements : 2261
Stream size : 71.1 KiB (0%)
Title : SDH
Language : English
Default : No
Forced : No

Text #3
ID : 6
Format : UTF-8
Codec ID : S_TEXT/UTF8
Codec ID/Info : UTF-8 Plain Text
Duration : 1 h 53 min
Bit rate : 71 b/s
Frame rate : 0.239 FPS
Count of elements : 1635
Stream size : 59.9 KiB (0%)
Language : Czech
Default : No
Forced : No

Text #4
ID : 7
Format : UTF-8
Codec ID : S_TEXT/UTF8
Codec ID/Info : UTF-8 Plain Text
Duration : 2 h 0 min
Bit rate : 64 b/s
Frame rate : 0.187 FPS
Count of elements : 1350
Stream size : 57.0 KiB (0%)
Language : Danish
Default : No
Forced : No

Text #5
ID : 8
Format : UTF-8
Codec ID : S_TEXT/UTF8
Codec ID/Info : UTF-8 Plain Text
Duration : 1 h 54 min
Bit rate : 67 b/s
Frame rate : 0.275 FPS
Count of elements : 1880
Stream size : 56.4 KiB (0%)
Language : German
Default : No
Forced : No

Text #6
ID : 9
Format : UTF-8
Codec ID : S_TEXT/UTF8
Codec ID/Info : UTF-8 Plain Text
Duration : 1 h 54 min
Bit rate : 117 b/s
Frame rate : 0.238 FPS
Count of elements : 1631
Stream size : 98.4 KiB (0%)
Language : Greek
Default : No
Forced : No

Text #7
ID : 10
Format : UTF-8
Codec ID : S_TEXT/UTF8
Codec ID/Info : UTF-8 Plain Text
Duration : 2 h 0 min
Bit rate : 68 b/s
Frame rate : 0.225 FPS
Count of elements : 1631
Stream size : 60.6 KiB (0%)
Title : Latin American
Language : Spanish
Default : No
Forced : No

Text #8
ID : 11
Format : UTF-8
Codec ID : S_TEXT/UTF8
Codec ID/Info : UTF-8 Plain Text
Duration : 2 h 0 min
Bit rate : 69 b/s
Frame rate : 0.235 FPS
Count of elements : 1700
Stream size : 61.4 KiB (0%)
Language : Spanish
Default : No
Forced : No

Text #9
ID : 12
Format : UTF-8
Codec ID : S_TEXT/UTF8
Codec ID/Info : UTF-8 Plain Text
Duration : 2 h 0 min
Bit rate : 62 b/s
Frame rate : 0.222 FPS
Count of elements : 1606
Stream size : 55.6 KiB (0%)
Language : Finnish
Default : No
Forced : No

Text #10
ID : 13
Format : UTF-8
Codec ID : S_TEXT/UTF8
Codec ID/Info : UTF-8 Plain Text
Duration : 2 h 0 min
Bit rate : 65 b/s
Frame rate : 0.227 FPS
Count of elements : 1643
Stream size : 58.2 KiB (0%)
Title : Canadian
Language : French
Default : No
Forced : No

Text #11
ID : 14
Format : UTF-8
Codec ID : S_TEXT/UTF8
Codec ID/Info : UTF-8 Plain Text
Duration : 2 h 0 min
Bit rate : 58 b/s
Frame rate : 0.232 FPS
Count of elements : 1674
Stream size : 51.6 KiB (0%)
Language : French
Default : No
Forced : No

Text #12
ID : 15
Format : UTF-8
Codec ID : S_TEXT/UTF8
Codec ID/Info : UTF-8 Plain Text
Duration : 2 h 0 min
Bit rate : 64 b/s
Frame rate : 0.215 FPS
Count of elements : 1557
Stream size : 56.6 KiB (0%)
Language : Hungarian
Default : No
Forced : No

Text #13
ID : 16
Format : UTF-8
Codec ID : S_TEXT/UTF8
Codec ID/Info : UTF-8 Plain Text
Duration : 2 h 0 min
Bit rate : 69 b/s
Frame rate : 0.210 FPS
Count of elements : 1521
Stream size : 61.3 KiB (0%)
Language : Icelandic
Default : No
Forced : No

Text #14
ID : 17
Format : UTF-8
Codec ID : S_TEXT/UTF8
Codec ID/Info : UTF-8 Plain Text
Duration : 2 h 0 min
Bit rate : 68 b/s
Frame rate : 0.225 FPS
Count of elements : 1632
Stream size : 60.5 KiB (0%)
Language : Italian
Default : No
Forced : No

Text #15
ID : 18
Format : UTF-8
Codec ID : S_TEXT/UTF8
Codec ID/Info : UTF-8 Plain Text
Duration : 2 h 0 min
Bit rate : 53 b/s
Frame rate : 0.222 FPS
Count of elements : 1608
Stream size : 47.1 KiB (0%)
Language : Japanese
Default : No
Forced : No

Text #16
ID : 19
Format : UTF-8
Codec ID : S_TEXT/UTF8
Codec ID/Info : UTF-8 Plain Text
Duration : 2 h 0 min
Bit rate : 61 b/s
Frame rate : 0.226 FPS
Count of elements : 1636
Stream size : 54.1 KiB (0%)
Language : Korean
Default : No
Forced : No

Text #17
ID : 20
Format : UTF-8
Codec ID : S_TEXT/UTF8
Codec ID/Info : UTF-8 Plain Text
Duration : 2 h 0 min
Bit rate : 54 b/s
Frame rate : 0.205 FPS
Count of elements : 1480
Stream size : 47.8 KiB (0%)
Language : Dutch
Default : No
Forced : No

Text #18
ID : 21
Format : UTF-8
Codec ID : S_TEXT/UTF8
Codec ID/Info : UTF-8 Plain Text
Duration : 2 h 0 min
Bit rate : 69 b/s
Frame rate : 0.226 FPS
Count of elements : 1634
Stream size : 61.0 KiB (0%)
Language : Norwegian
Default : No
Forced : No

Text #19
ID : 22
Format : UTF-8
Codec ID : S_TEXT/UTF8
Codec ID/Info : UTF-8 Plain Text
Duration : 2 h 0 min
Bit rate : 57 b/s
Frame rate : 0.213 FPS
Count of elements : 1543
Stream size : 50.4 KiB (0%)
Language : Polish
Default : No
Forced : No

Text #20
ID : 23
Format : UTF-8
Codec ID : S_TEXT/UTF8
Codec ID/Info : UTF-8 Plain Text
Duration : 2 h 0 min
Bit rate : 70 b/s
Frame rate : 0.225 FPS
Count of elements : 1627
Stream size : 62.7 KiB (0%)
Title : Brazilian
Language : Portuguese
Default : No
Forced : No

Text #21
ID : 24
Format : UTF-8
Codec ID : S_TEXT/UTF8
Codec ID/Info : UTF-8 Plain Text
Duration : 2 h 0 min
Bit rate : 69 b/s
Frame rate : 0.227 FPS
Count of elements : 1642
Stream size : 61.8 KiB (0%)
Language : Portuguese
Default : No
Forced : No

Text #22
ID : 25
Format : UTF-8
Codec ID : S_TEXT/UTF8
Codec ID/Info : UTF-8 Plain Text
Duration : 1 h 54 min
Bit rate : 67 b/s
Frame rate : 0.238 FPS
Count of elements : 1630
Stream size : 56.4 KiB (0%)
Language : Romanian
Default : No
Forced : No

Text #23
ID : 26
Format : UTF-8
Codec ID : S_TEXT/UTF8
Codec ID/Info : UTF-8 Plain Text
Duration : 2 h 0 min
Bit rate : 58 b/s
Frame rate : 0.226 FPS
Count of elements : 1636
Stream size : 51.5 KiB (0%)
Language : Slovak
Default : No
Forced : No

Text #24
ID : 27
Format : UTF-8
Codec ID : S_TEXT/UTF8
Codec ID/Info : UTF-8 Plain Text
Duration : 2 h 0 min
Bit rate : 68 b/s
Frame rate : 0.225 FPS
Count of elements : 1630
Stream size : 60.7 KiB (0%)
Language : Swedish
Default : No
Forced : No

Text #25
ID : 28
Format : UTF-8
Codec ID : S_TEXT/UTF8
Codec ID/Info : UTF-8 Plain Text
Duration : 2 h 0 min
Bit rate : 70 b/s
Frame rate : 0.226 FPS
Count of elements : 1635
Stream size : 62.3 KiB (0%)
Language : Turkish
Default : No
Forced : No

Text #26
ID : 29
Format : UTF-8
Codec ID : S_TEXT/UTF8
Codec ID/Info : UTF-8 Plain Text
Duration : 1 h 54 min
Bit rate : 53 b/s
Frame rate : 0.246 FPS
Count of elements : 1692
Stream size : 44.9 KiB (0%)
Title : 粤语
Language : Chinese
Default : No
Forced : No

Text #27
ID : 30
Format : UTF-8
Codec ID : S_TEXT/UTF8
Codec ID/Info : UTF-8 Plain Text
Duration : 2 h 1 min
Bit rate : 57 b/s
Frame rate : 0.244 FPS
Count of elements : 1778
Stream size : 51.5 KiB (0%)
Title : 简体
Language : Chinese
Default : No
Forced : No

Text #28
ID : 31
Format : UTF-8
Codec ID : S_TEXT/UTF8
Codec ID/Info : UTF-8 Plain Text
Duration : 2 h 0 min
Bit rate : 49 b/s
Frame rate : 0.230 FPS
Count of elements : 1662
Stream size : 44.0 KiB (0%)
Title : 繁体
Language : Chinese
Default : No
Forced : No


为了更好体验下载、推荐使用qBittorrent、uTorrent、BitComet等下载软件,有条件的推荐115或会员下载软件!

下载地址:


游客,如果您要查看本帖隐藏内容请回复





上一篇:金屋藏娇 / The Good House (2021) 4K高清版本下载
下一篇:布鲁克林 [简繁中字] Brooklyn (2015) 4K高清版本下载
回复

使用道具 举报

43

主题

1557

帖子

4479

积分

4K家园VIP

Rank: 9Rank: 9Rank: 9

积分
4479
发表于 2022-10-19 20:32:20 来自手机 | 显示全部楼层
试试先,好用再说
回复 支持 反对

使用道具 举报

主题

帖子

0

积分

4K家园VIP

Rank: 9Rank: 9Rank: 9

积分
0
发表于 2022-10-20 01:20:05 | 显示全部楼层
太好啦&萬分感謝版主的無私發佈分享%
回复 支持 反对

使用道具 举报

1

主题

1431

帖子

4103

积分

4K家园VIP

Rank: 9Rank: 9Rank: 9

积分
4103
发表于 2022-10-20 02:38:13 | 显示全部楼层
占坑编辑ing
回复 支持 反对

使用道具 举报

1

主题

1428

帖子

4138

积分

4K家园VIP

Rank: 9Rank: 9Rank: 9

积分
4138
发表于 2022-10-20 03:37:37 | 显示全部楼层
啥玩应呀
回复 支持 反对

使用道具 举报

52

主题

1576

帖子

4550

积分

4K家园VIP

Rank: 9Rank: 9Rank: 9

积分
4550
发表于 2022-10-20 05:09:44 来自手机 | 显示全部楼层
体验下4K版的
回复 支持 反对

使用道具 举报

2

主题

1734

帖子

4790

积分

4K家园VIP

Rank: 9Rank: 9Rank: 9

积分
4790
发表于 2022-10-20 05:22:51 | 显示全部楼层
路过 帮顶 嘿嘿
回复 支持 反对

使用道具 举报

头像被屏蔽

主题

帖子

1017

积分

禁止访问

积分
1017
发表于 2022-10-25 06:37:38 | 显示全部楼层
提示: 作者被禁止或删除 内容自动屏蔽
回复

使用道具 举报

您需要登录后才可以回帖 登录 | 立即注册

本版积分规则

精彩图文
Archiver|手机版|TAG|Sitemap|新帖|专题|联系我们:邮箱: 4kjia.com@gmail.com   

4k家园   ©2019