[4K电影] 穿靴子的猫[简繁中字] Puss in Boots (2011) 4K高清版本下载

[复制链接]

主题

帖子

0

积分

超级版主

Rank: 8Rank: 8

积分
0
 楼主| 发表于 2022-10-21 10:41:10 | 显示全部楼层 |阅读模式

QQ图片20221021103950_副本.png

◎译  名 穿靴子的猫/靴猫外传/鞋猫剑客(台)/无敌猫剑侠(港)/猫剑侠
◎片  名 Puss in Boots
◎年  代 2011
◎产  地 美国
◎类  别 喜剧/动画/家庭/奇幻/冒险
◎语  言 英语/西班牙语
◎上映日期 2011-10-28(美国)
◎IMDb评分 6.6/10 from 159519 users 更新 : 2022-10-21
◎IMDb链接 https://www.imdb.com/title/tt0448694/
◎豆瓣评分 7.7/10 from 125154 users 更新 : 2022-10-21
◎豆瓣链接 https://movie.douban.com/subject/2028585/
◎导  演 克里斯·米勒 Chris Miller
◎编  剧 汤姆·惠勒 Tom Wheeler / 布莱恩·林奇 Brian Lynch / 威廉姆·戴维斯 William Davies / 安德鲁·亚当森 Andrew Adamson / 夏尔·佩罗 Charles Perrault / 大卫·H·斯坦伯格 David H. Steinberg /大卫·斯泰恩伯格 David Steinberg /布莱恩-林奇 Brian Lynch
◎主  演 安东尼奥·班德拉斯 Antonio Banderas
       萨尔玛·海耶克 Salma Hayek
       扎克·加利凡纳基斯 Zach Galifianakis
       比利·鲍伯·松顿 Billy Bob Thornton
       艾米·塞德丽丝 Amy Sedaris
       康斯坦斯·马丽 Constance Marie
       吉尔莫·德尔·托罗 Guillermo del Toro
       迈克·米切尔 Mike Mitchell
       汤姆·惠勒 Tom Wheeler
       康拉德·弗农 Conrad Vernon
       汤姆·麦格拉思 Tom McGrath
       鲍勃·乔尔斯 Bob Joles
       鲍勃·佩尔西凯蒂 Bob Persichetti
       杰西卡·舒尔特 Jessica Schulte
       塞尔吉奥·布鲁纳 Sergio Bruna
       乔莎拉·吉纳罗 Jossara Jinaro
       拉拉·吉尔·米勒 Lara Jill Miller
       约书亚·拉什 Joshua Rush
       古明华 Ming-Wah Koo

◎简  介

  他是一只穿靴子的猫(安东尼奥·班德拉斯 Antonio Banderas 配音),多年来行侠仗义,行走江湖,剑术高明,胆大卖萌,虽是官兵通缉捉拿的要犯,但从来都无所畏惧,泰然自若。在某个极不友好的小酒馆里,靴猫听说杰克(Billy Bob Thornton 配音)和吉尔 (Amy Sedaris 配音)这对雌雄恶棍拿到了传说中的魔豆,魔豆长出的豆荚直通巨人的宫殿,而那里住着令人垂涎可以下金蛋的鹅。靴猫决定铤而走险劫掠魔豆,却遭到神秘的黑猫阻挠。在黑猫引诱下,他来到一处猫儿聚会的场所,结果意外遇到当年孤儿院的好友矮蛋(Zach Galifianakis 配音),黑猫则是性感的小母猫咪·柔爪(萨尔玛·海耶克 Salma Hayek 配音)。
矮蛋希望和靴猫重组魔豆帮,拿到下蛋的金鹅……



◎获奖情况

  第84届奥斯卡金像奖(2012)
  最佳动画长片(提名)

  第69届金球奖(2012)
  电影类 最佳动画长片(提名)

  第39届动画安妮奖(2012)
  最佳动画长片(提名)
  最佳导演(提名)
  最佳配音(提名)
  最佳配乐(提名)
  最佳剪辑(提名)
  最佳分镜(提名)
  最佳动画角色(提名)
  最佳角色设计(提名)
  最佳动画效果(提名)

  第17届美国评论家选择电影奖(2012)
  最佳动画片(提名)

  第10届华盛顿影评人协会奖(2011)
  最佳动画片(提名)

  第24届芝加哥影评人协会奖(2011)
  最佳动画片(提名)

  第14届美国青少年选择奖(2012)
  最佳动作片女演员(提名)
  最佳动画片(提名)

Video
ID : 1
Format : HEVC
Format/Info : High Efficiency Video Coding
Format profile : Main 10@L5@High
HDR format : Dolby Vision, Version 1.0, dvhe.05.06, BL+RPU
Codec ID : dvhe
Codec ID/Info : High Efficiency Video Coding with Dolby Vision
Duration : 1 h 30 min
Bit rate : 14.2 Mb/s
Width : 3 840 pixels
Height : 1 624 pixels
Original height : 1 622 pixels
Display aspect ratio : 2.35:1
Original display aspect ratio : 2.35:1
Frame rate mode : Constant
Frame rate : 23.976 (24000/1001) FPS
Color space : YUV
Chroma subsampling : 4:2:0
Bit depth : 10 bits
Bits/(Pixel*Frame) : 0.095
Stream size : 8.96 GiB (92%)
Default : Yes
Alternate group : 1
mdhd_Duration : 5410656
Codec configuration box : hvcC+dvcC

Audio #1
ID : 2
Format : E-AC-3 JOC
Format/Info : Enhanced AC-3 with Joint Object Coding
Commercial name : Dolby Digital Plus with Dolby Atmos
Codec ID : ec-3
Duration : 1 h 30 min
Bit rate mode : Constant
Bit rate : 768 kb/s
Maximum bit rate : 811 kb/s
Channel(s) : 6 channels
Channel layout : L R C LFE Ls Rs
Sampling rate : 48.0 kHz
Frame rate : 31.250 FPS (1536 SPF)
Compression mode : Lossy
Stream size : 495 MiB (5%)
Language : English
Service kind : Complete Main
Default : Yes
Alternate group : 1
Complexity index : Not present / 16
Number of dynamic objects : 15
Bed channel count : 1 channel
Bed channel configuration : LFE

Audio #2
ID : 4
Format : AC-3
Format/Info : Audio Coding 3
Commercial name : Dolby Digital
Codec ID : ac-3
Duration : 1 h 30 min
Bit rate mode : Constant
Bit rate : 448 kb/s
Maximum bit rate : 473 kb/s
Channel(s) : 2 channels
Channel layout : L R
Sampling rate : 48.0 kHz
Frame rate : 31.250 FPS (1536 SPF)
Compression mode : Lossy
Stream size : 289 MiB (3%)
Title : Commentary by Director Chris Miller with Producers Joe M. Aguilar and Latifa Ouaou / Commentary by Director Chris Miller with Producers Joe M. Aguilar and Latifa Ouaou
Language : English
Service kind : Complete Main
Default : Yes
Alternate group : 1

Text #1
ID : 6
Format : Timed Text
Codec ID : tx3g
Duration : 1 h 20 min
Bit rate mode : Variable
Bit rate : 54 b/s
Frame rate : 0.369 FPS
Stream size : 31.5 KiB (0%)
Language : English
Forced : No

Text #2
ID : 7
Format : Timed Text
Codec ID : tx3g
Duration : 1 h 20 min
Bit rate mode : Variable
Bit rate : 66 b/s
Frame rate : 0.368 FPS
Stream size : 39.2 KiB (0%)
Title : SDH
Language : English
Forced : No

Text #3
ID : 8
Format : Timed Text
Codec ID : tx3g
Duration : 1 h 19 min
Bit rate mode : Variable
Bit rate : 74 b/s
Frame rate : 0.371 FPS
Stream size : 43.6 KiB (0%)
Language : Arabic
Forced : No

Text #4
ID : 9
Format : Timed Text
Codec ID : tx3g
Duration : 1 h 30 min
Bit rate mode : Variable
Bit rate : 118 b/s
Frame rate : 0.353 FPS
Stream size : 77.7 KiB (0%)
Language : Bengali
Forced : No

Text #5
ID : 10
Format : Timed Text
Codec ID : tx3g
Duration : 1 h 30 min
Bit rate mode : Variable
Bit rate : 48 b/s
Frame rate : 0.341 FPS
Stream size : 31.6 KiB (0%)
Language : Czech
Forced : No

Text #6
ID : 11
Format : Timed Text
Codec ID : tx3g
Duration : 1 h 20 min
Bit rate mode : Variable
Bit rate : 58 b/s
Frame rate : 0.378 FPS
Stream size : 34.0 KiB (0%)
Language : Danish
Forced : No

Text #7
ID : 12
Format : Timed Text
Codec ID : tx3g
Duration : 1 h 20 min
Bit rate mode : Variable
Bit rate : 59 b/s
Frame rate : 0.373 FPS
Stream size : 34.9 KiB (0%)
Language : German
Forced : No

Text #8
ID : 13
Format : Timed Text
Codec ID : tx3g
Duration : 1 h 30 min
Bit rate mode : Variable
Bit rate : 74 b/s
Frame rate : 0.340 FPS
Stream size : 48.5 KiB (0%)
Language : Greek
Forced : No

Text #9
ID : 14
Format : Timed Text
Codec ID : tx3g
Duration : 1 h 19 min
Bit rate mode : Variable
Bit rate : 52 b/s
Frame rate : 0.360 FPS
Stream size : 30.6 KiB (0%)
Title : Latin American
Language : Spanish
Forced : No

Text #10
ID : 15
Format : Timed Text
Codec ID : tx3g
Duration : 1 h 19 min
Bit rate mode : Variable
Bit rate : 55 b/s
Frame rate : 0.365 FPS
Stream size : 32.2 KiB (0%)
Language : Spanish
Forced : No

Text #11
ID : 16
Format : Timed Text
Codec ID : tx3g
Duration : 1 h 20 min
Bit rate mode : Variable
Bit rate : 49 b/s
Frame rate : 0.373 FPS
Stream size : 28.8 KiB (0%)
Language : Finnish
Forced : No

Text #12
ID : 17
Format : Timed Text
Codec ID : tx3g
Duration : 1 h 19 min
Bit rate mode : Variable
Bit rate : 52 b/s
Frame rate : 0.348 FPS
Stream size : 30.5 KiB (0%)
Language : French
Forced : No

Text #13
ID : 18
Format : Timed Text
Codec ID : tx3g
Duration : 1 h 20 min
Bit rate mode : Variable
Bit rate : 74 b/s
Frame rate : 0.394 FPS
Stream size : 44.0 KiB (0%)
Language : Hebrew
Forced : No

Text #14
ID : 19
Format : Timed Text
Codec ID : tx3g
Duration : 1 h 19 min
Bit rate mode : Variable
Bit rate : 126 b/s
Frame rate : 0.374 FPS
Stream size : 73.7 KiB (0%)
Language : Hindi
Forced : No

Text #15
ID : 20
Format : Timed Text
Codec ID : tx3g
Duration : 1 h 19 min
Bit rate mode : Variable
Bit rate : 49 b/s
Frame rate : 0.366 FPS
Stream size : 28.5 KiB (0%)
Language : Croatian
Forced : No

Text #16
ID : 21
Format : Timed Text
Codec ID : tx3g
Duration : 1 h 30 min
Bit rate mode : Variable
Bit rate : 46 b/s
Frame rate : 0.339 FPS
Stream size : 30.6 KiB (0%)
Language : Hungarian
Forced : No

Text #17
ID : 22
Format : Timed Text
Codec ID : tx3g
Duration : 1 h 30 min
Bit rate mode : Variable
Bit rate : 46 b/s
Frame rate : 0.338 FPS
Stream size : 30.3 KiB (0%)
Language : Indonesian
Forced : No

Text #18
ID : 23
Format : Timed Text
Codec ID : tx3g
Duration : 1 h 30 min
Bit rate mode : Variable
Bit rate : 53 b/s
Frame rate : 0.340 FPS
Stream size : 35.1 KiB (0%)
Language : Icelandic
Forced : No

Text #19
ID : 24
Format : Timed Text
Codec ID : tx3g
Duration : 1 h 19 min
Bit rate mode : Variable
Bit rate : 56 b/s
Frame rate : 0.367 FPS
Stream size : 32.9 KiB (0%)
Language : Italian
Forced : No

Text #20
ID : 25
Format : Timed Text
Codec ID : tx3g
Duration : 1 h 19 min
Bit rate mode : Variable
Bit rate : 50 b/s
Frame rate : 0.396 FPS
Stream size : 29.1 KiB (0%)
Language : Japanese
Forced : No

Text #21
ID : 26
Format : Timed Text
Codec ID : tx3g
Duration : 1 h 19 min
Bit rate mode : Variable
Bit rate : 49 b/s
Frame rate : 0.367 FPS
Stream size : 28.8 KiB (0%)
Language : Korean
Forced : No

Text #22
ID : 27
Format : Timed Text
Codec ID : tx3g
Duration : 1 h 30 min
Bit rate mode : Variable
Bit rate : 51 b/s
Frame rate : 0.340 FPS
Stream size : 33.6 KiB (0%)
Language : Malay
Forced : No

Text #23
ID : 28
Format : Timed Text
Codec ID : tx3g
Duration : 1 h 19 min
Bit rate mode : Variable
Bit rate : 50 b/s
Frame rate : 0.369 FPS
Stream size : 29.1 KiB (0%)
Language : Norwegian Bokmal
Forced : No

Text #24
ID : 29
Format : Timed Text
Codec ID : tx3g
Duration : 1 h 19 min
Bit rate mode : Variable
Bit rate : 50 b/s
Frame rate : 0.332 FPS
Stream size : 29.3 KiB (0%)
Language : Dutch
Forced : No

Text #25
ID : 30
Format : Timed Text
Codec ID : tx3g
Duration : 1 h 19 min
Bit rate mode : Variable
Bit rate : 52 b/s
Frame rate : 0.360 FPS
Stream size : 30.3 KiB (0%)
Language : Polish
Forced : No

Text #26
ID : 31
Format : Timed Text
Codec ID : tx3g
Duration : 1 h 19 min
Bit rate mode : Variable
Bit rate : 50 b/s
Frame rate : 0.372 FPS
Stream size : 29.1 KiB (0%)
Title : Brazilian
Language : Portuguese
Forced : No

Text #27
ID : 32
Format : Timed Text
Codec ID : tx3g
Duration : 1 h 19 min
Bit rate mode : Variable
Bit rate : 52 b/s
Frame rate : 0.374 FPS
Stream size : 30.5 KiB (0%)
Language : Portuguese
Forced : No

Text #28
ID : 33
Format : Timed Text
Codec ID : tx3g
Duration : 1 h 19 min
Bit rate mode : Variable
Bit rate : 53 b/s
Frame rate : 0.372 FPS
Stream size : 30.9 KiB (0%)
Language : Romanian
Forced : No

Text #29
ID : 34
Format : Timed Text
Codec ID : tx3g
Duration : 1 h 20 min
Bit rate mode : Variable
Bit rate : 86 b/s
Frame rate : 0.377 FPS
Stream size : 50.4 KiB (0%)
Language : Russian
Forced : No

Text #30
ID : 35
Format : Timed Text
Codec ID : tx3g
Duration : 1 h 19 min
Bit rate mode : Variable
Bit rate : 54 b/s
Frame rate : 0.364 FPS
Stream size : 31.8 KiB (0%)
Language : Swedish
Forced : No

Text #31
ID : 36
Format : Timed Text
Codec ID : tx3g
Duration : 1 h 20 min
Bit rate mode : Variable
Bit rate : 146 b/s
Frame rate : 0.399 FPS
Stream size : 85.6 KiB (0%)
Language : Tamil
Forced : No

Text #32
ID : 37
Format : Timed Text
Codec ID : tx3g
Duration : 1 h 19 min
Bit rate mode : Variable
Bit rate : 115 b/s
Frame rate : 0.371 FPS
Stream size : 67.3 KiB (0%)
Language : Thai
Forced : No

Text #33
ID : 38
Format : Timed Text
Codec ID : tx3g
Duration : 1 h 20 min
Bit rate mode : Variable
Bit rate : 52 b/s
Frame rate : 0.371 FPS
Stream size : 30.6 KiB (0%)
Language : Turkish
Forced : No

Text #34
ID : 39
Format : Timed Text
Codec ID : tx3g
Duration : 1 h 30 min
Bit rate mode : Variable
Bit rate : 72 b/s
Frame rate : 0.340 FPS
Stream size : 47.8 KiB (0%)
Language : Ukrainian
Forced : No

Text #35
ID : 40
Format : Timed Text
Codec ID : tx3g
Duration : 1 h 19 min
Bit rate mode : Variable
Bit rate : 65 b/s
Frame rate : 0.373 FPS
Stream size : 38.3 KiB (0%)
Language : Vietnamese
Forced : No

Text #36
ID : 41
Format : Timed Text
Codec ID : tx3g
Duration : 1 h 19 min
Bit rate mode : Variable
Bit rate : 41 b/s
Frame rate : 0.368 FPS
Stream size : 24.1 KiB (0%)
Title : 简体(中文)
Language : Chinese
Forced : No

Text #37
ID : 42
Format : Timed Text
Codec ID : tx3g
Duration : 1 h 19 min
Bit rate mode : Variable
Bit rate : 42 b/s
Frame rate : 0.369 FPS
Stream size : 24.8 KiB (0%)
Title : 繁体(中文)
Language : Chinese
Forced : No

Menu
00:00:00.000 : Stealing "Magic Beans"
00:03:23.033 : Planting "Magic BEans"
00:07:17.700 : The Giant's Castle
00:11:44.167 : Goldern Goose
00:15:50.501 : Happy Movement
00:19:20.369 : Telling the Revenge
00:25:54.836 : Puss in Prison
00:29:18.670 : Saving "San Ricardo"
00:34:02.504 : Opening Credits & Intro
00:39:13.171 : Puss in BAR
00:44:07.371 : Jack & Jill
00:49:29.172 : Dance Fight
00:54:00.706 : Kitty Softpaws Intro
00:57:33.173 : Story Behind Past
01:03:00.206 : Brothers Forever
01:08:08.673 : No Stealing Anymore
01:16:45.173 : He's no Outlaw...He's Hero
01:19:35.373 : Glitter Box & End Credits


为了更好体验下载、推荐使用qBittorrent、uTorrent、BitComet等下载软件,有条件的推荐115或会员下载软件!

下载地址:


游客,如果您要查看本帖隐藏内容请回复

游客,如果您要查看本帖隐藏内容请回复

游客,如果您要查看本帖隐藏内容请回复

游客,如果您要查看本帖隐藏内容请回复






上一篇:布鲁克林 [简繁中字] Brooklyn (2015) 4K高清版本下载
下一篇:雷蒙德和雷 [简繁中字] Raymond Ray (2022) 4K高清版本下载
回复

使用道具 举报

2

主题

1225

帖子

3697

积分

4K家园VIP

Rank: 9Rank: 9Rank: 9

积分
3697
发表于 2022-10-21 10:41:15 | 显示全部楼层
介是神马?!!
回复 支持 反对

使用道具 举报

1

主题

1777

帖子

4944

积分

4K家园VIP

Rank: 9Rank: 9Rank: 9

积分
4944
发表于 2022-10-21 10:41:15 来自手机 | 显示全部楼层
啊啊啊啊啊啊啊啊啊啊啊
回复 支持 反对

使用道具 举报

0

主题

1365

帖子

4111

积分

4K家园VIP

Rank: 9Rank: 9Rank: 9

积分
4111
发表于 2022-10-21 10:41:15 | 显示全部楼层
什么东西啊
回复 支持 反对

使用道具 举报

3

主题

1438

帖子

4338

积分

4K家园VIP

Rank: 9Rank: 9Rank: 9

积分
4338
发表于 2022-10-21 11:30:15 | 显示全部楼层
呵呵。。。
回复 支持 反对

使用道具 举报

1

主题

1211

帖子

3653

积分

4K家园VIP

Rank: 9Rank: 9Rank: 9

积分
3653
发表于 2022-10-21 19:17:57 | 显示全部楼层
路过
回复 支持 反对

使用道具 举报

主题

帖子

10

积分

新手上路

Rank: 1

积分
10
发表于 2022-10-21 23:50:25 | 显示全部楼层
啊这,懵了,阿巴阿巴
回复 支持 反对

使用道具 举报

头像被屏蔽

主题

帖子

1017

积分

禁止访问

积分
1017
发表于 2022-10-31 00:36:01 | 显示全部楼层
提示: 作者被禁止或删除 内容自动屏蔽
回复

使用道具 举报

48

主题

1596

帖子

4612

积分

4K家园VIP

Rank: 9Rank: 9Rank: 9

积分
4612
发表于 2022-11-12 22:42:43 | 显示全部楼层
感谢推荐,确实不错
回复 支持 反对

使用道具 举报

您需要登录后才可以回帖 登录 | 立即注册

本版积分规则

精彩图文
Archiver|手机版|TAG|Sitemap|新帖|专题|联系我们:邮箱: 4kjia.com@gmail.com   

4k家园   ©2019