[4K电影] 雷蒙德和雷 [简繁中字] Raymond Ray (2022) 4K高清版本下载

[复制链接]

主题

帖子

0

积分

超级版主

Rank: 8Rank: 8

积分
0
 楼主| 发表于 2022-10-21 13:10:38 | 显示全部楼层 |阅读模式
本帖最后由 最爱4K哟 于 2022-10-21 13:27 编辑

QQ图片20221021131341_副本.png

◎标  题 雷蒙德和雷
◎译  名 Raymond and Ray
◎片  名 Raymond & Ray
◎年  代 2022
◎产  地 美国
◎类  别 剧情 / 喜剧
◎语  言 英语
◎上映日期 2022-09-12(多伦多电影节) / 2022-10-14(美国) / 2022-10-21(美国网络)
◎IMDb评分 7.8/10 from 112 users 更新 : 2022-10-21
◎IMDb链接 https://www.imdb.com/title/tt15334032/
◎豆瓣评分 0/10 from 0 users
◎豆瓣链接 https://movie.douban.com/subject/35580293/
◎片  长 100分钟
◎导  演 罗德里戈·加西亚 Rodrigo García
◎编  剧 罗德里戈·加西亚 Rodrigo García
◎演  员 伊万·麦克格雷格 Ewan McGregor
       伊桑·霍克 Ethan Hawke
       玛丽维尔·贝尔杜 Maribel Verdú
       苏菲·奥康内多 Sophie Okonedo
       沃迪·科蒂斯·霍尔 Vondie Curtis-Hall
       汤姆·鲍尔 Tom Bower
       托德·路易斯 Todd Louiso
       玛丽索尔·科雷亚 Marisol Correa
       克里斯·西尔科克 Chris Silcox
       克里斯·格拉伯 Chris Grabher
       阿方索·卡隆 Alfonso Cuarón
       艾米·安德鲁斯 Amy Andrews


◎简  介


  讲述两个同父异母的兄弟雷蒙德(麦克格雷格)和雷(霍克)生活在可怕父亲的阴影下,不知何故,他们仍然有幽默感,而父亲的葬礼是他们重新塑造自己的机会。有愤怒,有痛苦,有愚蠢,也许有爱,当然也有埋葬。

Video
ID : 1
Format : HEVC
Format/Info : High Efficiency Video Coding
Format profile : Main 10@L5@High
HDR format : Dolby Vision, Version 1.0, dvhe.05.06, BL+RPU
Codec ID : dvhe
Codec ID/Info : High Efficiency Video Coding with Dolby Vision
Duration : 1 h 45 min
Bit rate : 24.3 Mb/s
Width : 3 840 pixels
Height : 1 608 pixels
Original height : 1 606 pixels
Display aspect ratio : 2.40:1
Original display aspect ratio : 2.40:1
Frame rate mode : Constant
Frame rate : 23.976 (24000/1001) FPS
Color space : YUV
Chroma subsampling : 4:2:0
Bit depth : 10 bits
Bits/(Pixel*Frame) : 0.164
Stream size : 17.9 GiB (97%)
Default : Yes
Alternate group : 1
Encoded date : UTC 2022-10-21 03:44:43
Tagged date : UTC 2022-10-21 03:46:52
Codec configuration box : hvcC+dvcC

Audio
ID : 2
Format : E-AC-3 JOC
Format/Info : Enhanced AC-3 with Joint Object Coding
Commercial name : Dolby Digital Plus with Dolby Atmos
Codec ID : ec-3
Duration : 1 h 45 min
Bit rate mode : Constant
Bit rate : 768 kb/s
Maximum bit rate : 811 kb/s
Channel(s) : 6 channels
Channel layout : L R C LFE Ls Rs
Sampling rate : 48.0 kHz
Frame rate : 31.250 FPS (1536 SPF)
Compression mode : Lossy
Stream size : 581 MiB (3%)
Title : English
Language : English
Service kind : Complete Main
Default : Yes
Alternate group : 1
Tagged date : UTC 2022-10-21 03:46:52
Complexity index : Not present / 16
Number of dynamic objects : 15
Bed channel count : 1 channel
Bed channel configuration : LFE

Text #1
ID : 3
Format : Timed Text
Codec ID : tx3g
Duration : 1 h 38 min
Bit rate mode : Variable
Bit rate : 55 b/s
Frame rate : 0.377 FPS
Stream size : 40.0 KiB (0%)
Title : English
Language : English
Forced : No
Encoded date : UTC 2022-10-21 03:46:44
Tagged date : UTC 2022-10-21 03:46:52

Text #2
ID : 4
Format : Timed Text
Codec ID : tx3g
Duration : 1 h 39 min
Bit rate mode : Variable
Bit rate : 62 b/s
Frame rate : 0.417 FPS
Stream size : 45.4 KiB (0%)
Title : English
Language : English
Forced : No
Encoded date : UTC 2022-10-21 03:46:46
Tagged date : UTC 2022-10-21 03:46:52

Text #3
ID : 5
Format : Timed Text
Codec ID : tx3g
Duration : 1 h 9 min
Bit rate mode : Variable
Bit rate : 0 b/s
Frame rate : 0.002 FPS
Stream size : 123 Bytes (0%)
Title : English
Language : English
Forced : No
Encoded date : UTC 2022-10-21 03:46:46
Tagged date : UTC 2022-10-21 03:46:52

Text #4
ID : 6
Format : Timed Text
Codec ID : tx3g
Duration : 1 h 45 min
Bit rate mode : Variable
Bit rate : 74 b/s
Frame rate : 0.353 FPS
Stream size : 57.2 KiB (0%)
Title : Arabic
Language : Arabic
Forced : No
Encoded date : UTC 2022-10-21 03:46:46
Tagged date : UTC 2022-10-21 03:46:52

Text #5
ID : 7
Format : Timed Text
Codec ID : tx3g
Duration : 1 h 45 min
Bit rate mode : Variable
Bit rate : 74 b/s
Frame rate : 0.320 FPS
Stream size : 57.1 KiB (0%)
Title : Bulgarian
Language : Bulgarian
Forced : No
Encoded date : UTC 2022-10-21 03:46:47
Tagged date : UTC 2022-10-21 03:46:52

Text #6
ID : 8
Format : Timed Text
Codec ID : tx3g
Duration : 1 h 45 min
Bit rate mode : Variable
Bit rate : 50 b/s
Frame rate : 0.354 FPS
Stream size : 38.3 KiB (0%)
Title : Chinese-Simplified
Language : Chinese
Forced : No
Encoded date : UTC 2022-10-21 03:46:47
Tagged date : UTC 2022-10-21 03:46:52

Text #7
ID : 9
Format : Timed Text
Codec ID : tx3g
Duration : 1 h 45 min
Bit rate mode : Variable
Bit rate : 49 b/s
Frame rate : 0.354 FPS
Stream size : 38.2 KiB (0%)
Title : Chinese-Traditional
Language : Chinese
Forced : No
Encoded date : UTC 2022-10-21 03:46:47
Tagged date : UTC 2022-10-21 03:46:52

Text #8
ID : 10
Format : Timed Text
Codec ID : tx3g
Duration : 1 h 45 min
Bit rate mode : Variable
Bit rate : 48 b/s
Frame rate : 0.354 FPS
Stream size : 36.9 KiB (0%)
Title : Chinese-Traditional
Language : Chinese
Forced : No
Encoded date : UTC 2022-10-21 03:46:48
Tagged date : UTC 2022-10-21 03:46:52

Text #9
ID : 11
Format : Timed Text
Codec ID : tx3g
Duration : 1 h 45 min
Bit rate mode : Variable
Bit rate : 48 b/s
Frame rate : 0.333 FPS
Stream size : 36.9 KiB (0%)
Title : Czech
Language : Czech
Forced : No
Encoded date : UTC 2022-10-21 03:46:49
Tagged date : UTC 2022-10-21 03:46:52

Text #10
ID : 12
Format : Timed Text
Codec ID : tx3g
Duration : 1 h 45 min
Bit rate mode : Variable
Bit rate : 48 b/s
Frame rate : 0.325 FPS
Stream size : 36.9 KiB (0%)
Title : Danish
Language : Danish
Forced : No
Encoded date : UTC 2022-10-21 03:46:49
Tagged date : UTC 2022-10-21 03:46:52

Text #11
ID : 13
Format : Timed Text
Codec ID : tx3g
Duration : 1 h 45 min
Bit rate mode : Variable
Bit rate : 47 b/s
Frame rate : 0.285 FPS
Stream size : 36.4 KiB (0%)
Title : Dutch
Language : Dutch
Forced : No
Encoded date : UTC 2022-10-21 03:46:50
Tagged date : UTC 2022-10-21 03:46:52

Text #12
ID : 14
Format : Timed Text
Codec ID : tx3g
Duration : 1 h 45 min
Bit rate mode : Variable
Bit rate : 49 b/s
Frame rate : 0.313 FPS
Stream size : 38.2 KiB (0%)
Title : Estonian
Language : Estonian
Forced : No
Encoded date : UTC 2022-10-21 03:46:51
Tagged date : UTC 2022-10-21 03:46:52

Text #13
ID : 15
Format : Timed Text
Codec ID : tx3g
Duration : 1 h 45 min
Bit rate mode : Variable
Bit rate : 48 b/s
Frame rate : 0.339 FPS
Stream size : 37.4 KiB (0%)
Title : Finnish
Language : Finnish
Forced : No
Encoded date : UTC 2022-10-21 03:46:51
Tagged date : UTC 2022-10-21 03:46:52

Text #14
ID : 16
Format : Timed Text
Codec ID : tx3g
Duration : 1 h 39 min
Bit rate mode : Variable
Bit rate : 51 b/s
Frame rate : 0.395 FPS
Stream size : 37.5 KiB (0%)
Title : French
Language : French
Forced : No
Encoded date : UTC 2022-10-21 03:46:51
Tagged date : UTC 2022-10-21 03:46:52

Text #15
ID : 17
Format : Timed Text
Codec ID : tx3g
Duration : 1 h 39 min
Bit rate mode : Variable
Bit rate : 51 b/s
Frame rate : 0.395 FPS
Stream size : 37.5 KiB (0%)
Title : French
Language : French
Forced : No
Encoded date : UTC 2022-10-21 03:46:51
Tagged date : UTC 2022-10-21 03:46:52

Text #16
ID : 18
Format : Timed Text
Codec ID : tx3g
Duration : 1 h 40 min
Bit rate mode : Variable
Bit rate : 61 b/s
Frame rate : 0.361 FPS
Stream size : 44.9 KiB (0%)
Title : German
Language : German
Forced : No
Encoded date : UTC 2022-10-21 03:46:51
Tagged date : UTC 2022-10-21 03:46:52

Text #17
ID : 19
Format : Timed Text
Codec ID : tx3g
Duration : 1 h 45 min
Bit rate mode : Variable
Bit rate : 83 b/s
Frame rate : 0.329 FPS
Stream size : 64.3 KiB (0%)
Title : Greek
Language : Greek
Forced : No
Encoded date : UTC 2022-10-21 03:46:51
Tagged date : UTC 2022-10-21 03:46:52

Text #18
ID : 20
Format : Timed Text
Codec ID : tx3g
Duration : 1 h 45 min
Bit rate mode : Variable
Bit rate : 68 b/s
Frame rate : 0.353 FPS
Stream size : 52.4 KiB (0%)
Title : Hebrew
Language : Hebrew
Forced : No
Encoded date : UTC 2022-10-21 03:46:51
Tagged date : UTC 2022-10-21 03:46:52

Text #19
ID : 21
Format : Timed Text
Codec ID : tx3g
Duration : 1 h 45 min
Bit rate mode : Variable
Bit rate : 139 b/s
Frame rate : 0.354 FPS
Stream size : 108 KiB (0%)
Title : Hindi
Language : Hindi
Forced : No
Encoded date : UTC 2022-10-21 03:46:51
Tagged date : UTC 2022-10-21 03:46:52

Text #20
ID : 22
Format : Timed Text
Codec ID : tx3g
Duration : 1 h 45 min
Bit rate mode : Variable
Bit rate : 52 b/s
Frame rate : 0.350 FPS
Stream size : 40.1 KiB (0%)
Title : Hungarian
Language : Hungarian
Forced : No
Encoded date : UTC 2022-10-21 03:46:51
Tagged date : UTC 2022-10-21 03:46:52

Text #21
ID : 23
Format : Timed Text
Codec ID : tx3g
Duration : 1 h 45 min
Bit rate mode : Variable
Bit rate : 51 b/s
Frame rate : 0.352 FPS
Stream size : 39.7 KiB (0%)
Title : Indonesian
Language : Indonesian
Forced : No
Encoded date : UTC 2022-10-21 03:46:51
Tagged date : UTC 2022-10-21 03:46:52

Text #22
ID : 24
Format : Timed Text
Codec ID : tx3g
Duration : 1 h 40 min
Bit rate mode : Variable
Bit rate : 57 b/s
Frame rate : 0.371 FPS
Stream size : 41.8 KiB (0%)
Title : Italian
Language : Italian
Forced : No
Encoded date : UTC 2022-10-21 03:46:51
Tagged date : UTC 2022-10-21 03:46:52

Text #23
ID : 25
Format : Timed Text
Codec ID : tx3g
Duration : 1 h 45 min
Bit rate mode : Variable
Bit rate : 46 b/s
Frame rate : 0.352 FPS
Stream size : 35.7 KiB (0%)
Title : Japanese
Language : Japanese
Forced : No
Encoded date : UTC 2022-10-21 03:46:51
Tagged date : UTC 2022-10-21 03:46:52

Text #24
ID : 26
Format : Timed Text
Codec ID : tx3g
Duration : 1 h 45 min
Bit rate mode : Variable
Bit rate : 58 b/s
Frame rate : 0.354 FPS
Stream size : 44.9 KiB (0%)
Title : Korean
Language : Korean
Forced : No
Encoded date : UTC 2022-10-21 03:46:51
Tagged date : UTC 2022-10-21 03:46:52

Text #25
ID : 27
Format : Timed Text
Codec ID : tx3g
Duration : 1 h 45 min
Bit rate mode : Variable
Bit rate : 53 b/s
Frame rate : 0.346 FPS
Stream size : 41.1 KiB (0%)
Title : Latvian
Language : Latvian
Forced : No
Encoded date : UTC 2022-10-21 03:46:51
Tagged date : UTC 2022-10-21 03:46:52

Text #26
ID : 28
Format : Timed Text
Codec ID : tx3g
Duration : 1 h 45 min
Bit rate mode : Variable
Bit rate : 51 b/s
Frame rate : 0.349 FPS
Stream size : 39.3 KiB (0%)
Title : Lithuanian
Language : Lithuanian
Forced : No
Encoded date : UTC 2022-10-21 03:46:51
Tagged date : UTC 2022-10-21 03:46:52

Text #27
ID : 29
Format : Timed Text
Codec ID : tx3g
Duration : 1 h 45 min
Bit rate mode : Variable
Bit rate : 52 b/s
Frame rate : 0.352 FPS
Stream size : 40.2 KiB (0%)
Title : Malay
Language : Malay
Forced : No
Encoded date : UTC 2022-10-21 03:46:51
Tagged date : UTC 2022-10-21 03:46:52

Text #28
ID : 30
Format : Timed Text
Codec ID : tx3g
Duration : 1 h 45 min
Bit rate mode : Variable
Bit rate : 48 b/s
Frame rate : 0.286 FPS
Stream size : 37.3 KiB (0%)
Title : Norwegian
Language : Norwegian
Forced : No
Encoded date : UTC 2022-10-21 03:46:51
Tagged date : UTC 2022-10-21 03:46:52

Text #29
ID : 31
Format : Timed Text
Codec ID : tx3g
Duration : 1 h 45 min
Bit rate mode : Variable
Bit rate : 48 b/s
Frame rate : 0.335 FPS
Stream size : 37.1 KiB (0%)
Title : Polish
Language : Polish
Forced : No
Encoded date : UTC 2022-10-21 03:46:52
Tagged date : UTC 2022-10-21 03:46:52

Text #30
ID : 32
Format : Timed Text
Codec ID : tx3g
Duration : 1 h 45 min
Bit rate mode : Variable
Bit rate : 53 b/s
Frame rate : 0.349 FPS
Stream size : 40.7 KiB (0%)
Title : Portuguese
Language : Portuguese
Forced : No
Encoded date : UTC 2022-10-21 03:46:52
Tagged date : UTC 2022-10-21 03:46:52

Text #31
ID : 33
Format : Timed Text
Codec ID : tx3g
Duration : 1 h 45 min
Bit rate mode : Variable
Bit rate : 49 b/s
Frame rate : 0.345 FPS
Stream size : 38.3 KiB (0%)
Title : Portuguese
Language : Portuguese
Forced : No
Encoded date : UTC 2022-10-21 03:46:52
Tagged date : UTC 2022-10-21 03:46:52

Text #32
ID : 34
Format : Timed Text
Codec ID : tx3g
Duration : 1 h 45 min
Bit rate mode : Variable
Bit rate : 75 b/s
Frame rate : 0.353 FPS
Stream size : 58.2 KiB (0%)
Title : Russian
Language : Russian
Forced : No
Encoded date : UTC 2022-10-21 03:46:52
Tagged date : UTC 2022-10-21 03:46:52

Text #33
ID : 35
Format : Timed Text
Codec ID : tx3g
Duration : 1 h 45 min
Bit rate mode : Variable
Bit rate : 50 b/s
Frame rate : 0.351 FPS
Stream size : 38.9 KiB (0%)
Title : Slovak
Language : Slovak
Forced : No
Encoded date : UTC 2022-10-21 03:46:52
Tagged date : UTC 2022-10-21 03:46:52

Text #34
ID : 36
Format : Timed Text
Codec ID : tx3g
Duration : 1 h 45 min
Bit rate mode : Variable
Bit rate : 42 b/s
Frame rate : 0.297 FPS
Stream size : 32.6 KiB (0%)
Title : Slovenian
Language : Slovenian
Forced : No
Encoded date : UTC 2022-10-21 03:46:52
Tagged date : UTC 2022-10-21 03:46:52

Text #35
ID : 37
Format : Timed Text
Codec ID : tx3g
Duration : 1 h 45 min
Bit rate mode : Variable
Bit rate : 54 b/s
Frame rate : 0.351 FPS
Stream size : 41.9 KiB (0%)
Title : Spanish
Language : Spanish
Forced : No
Encoded date : UTC 2022-10-21 03:46:52
Tagged date : UTC 2022-10-21 03:46:52

Text #36
ID : 38
Format : Timed Text
Codec ID : tx3g
Duration : 1 h 45 min
Bit rate mode : Variable
Bit rate : 51 b/s
Frame rate : 0.343 FPS
Stream size : 39.3 KiB (0%)
Title : Spanish-EU
Language : Spanish
Forced : No
Encoded date : UTC 2022-10-21 03:46:52
Tagged date : UTC 2022-10-21 03:46:52

Text #37
ID : 39
Format : Timed Text
Codec ID : tx3g
Duration : 1 h 45 min
Bit rate mode : Variable
Bit rate : 51 b/s
Frame rate : 0.330 FPS
Stream size : 39.5 KiB (0%)
Title : Swedish
Language : Swedish
Forced : No
Encoded date : UTC 2022-10-21 03:46:52
Tagged date : UTC 2022-10-21 03:46:52

Text #38
ID : 40
Format : Timed Text
Codec ID : tx3g
Duration : 1 h 45 min
Bit rate mode : Variable
Bit rate : 150 b/s
Frame rate : 0.354 FPS
Stream size : 116 KiB (0%)
Title : Tamil
Language : Tamil
Forced : No
Encoded date : UTC 2022-10-21 03:46:52
Tagged date : UTC 2022-10-21 03:46:52

Text #39
ID : 41
Format : Timed Text
Codec ID : tx3g
Duration : 1 h 45 min
Bit rate mode : Variable
Bit rate : 146 b/s
Frame rate : 0.354 FPS
Stream size : 113 KiB (0%)
Title : Telugu
Language : Telugu
Forced : No
Encoded date : UTC 2022-10-21 03:46:52
Tagged date : UTC 2022-10-21 03:46:52

Text #40
ID : 42
Format : Timed Text
Codec ID : tx3g
Duration : 1 h 45 min
Bit rate mode : Variable
Bit rate : 122 b/s
Frame rate : 0.354 FPS
Stream size : 94.8 KiB (0%)
Title : Thai
Language : Thai
Forced : No
Encoded date : UTC 2022-10-21 03:46:52
Tagged date : UTC 2022-10-21 03:46:52

Text #41
ID : 43
Format : Timed Text
Codec ID : tx3g
Duration : 1 h 45 min
Bit rate mode : Variable
Bit rate : 51 b/s
Frame rate : 0.350 FPS
Stream size : 39.8 KiB (0%)
Title : Turkish
Language : Turkish
Forced : No
Encoded date : UTC 2022-10-21 03:46:52
Tagged date : UTC 2022-10-21 03:46:52

Text #42
ID : 44
Format : Timed Text
Codec ID : tx3g
Duration : 1 h 45 min
Bit rate mode : Variable
Bit rate : 74 b/s
Frame rate : 0.353 FPS
Stream size : 57.3 KiB (0%)
Title : Ukrainian
Language : Ukrainian
Forced : No
Encoded date : UTC 2022-10-21 03:46:52
Tagged date : UTC 2022-10-21 03:46:52

Text #43
ID : 45
Format : Timed Text
Codec ID : tx3g
Duration : 1 h 45 min
Bit rate mode : Variable
Bit rate : 65 b/s
Frame rate : 0.352 FPS
Stream size : 50.0 KiB (0%)
Title : Vietnamese
Language : Vietnamese
Forced : No
Encoded date : UTC 2022-10-21 03:46:52
Tagged date : UTC 2022-10-21 03:46:52

为了更好体验下载、推荐使用qBittorrent、uTorrent、BitComet等下载软件,有条件的推荐115或会员下载软件!

下载地址:


游客,如果您要查看本帖隐藏内容请回复

游客,如果您要查看本帖隐藏内容请回复

游客,如果您要查看本帖隐藏内容请回复

游客,如果您要查看本帖隐藏内容请回复








上一篇:穿靴子的猫[简繁中字] Puss in Boots (2011) 4K高清版本下载
下一篇:警探奈特:侠盗 / Detective Knight: Rogue (2022)4K高清版本下载
回复

使用道具 举报

60

主题

1541

帖子

4479

积分

4K家园VIP

Rank: 9Rank: 9Rank: 9

积分
4479
发表于 2022-10-21 13:10:43 | 显示全部楼层
为了三千积分!
回复 支持 反对

使用道具 举报

2

主题

1520

帖子

4364

积分

4K家园VIP

Rank: 9Rank: 9Rank: 9

积分
4364
发表于 2022-10-22 19:45:34 | 显示全部楼层
回个帖子,下班咯~
回复 支持 反对

使用道具 举报

4

主题

1419

帖子

4268

积分

4K家园VIP

Rank: 9Rank: 9Rank: 9

积分
4268
发表于 2022-10-26 09:11:13 | 显示全部楼层
路过的帮顶
回复 支持 反对

使用道具 举报

3

主题

1674

帖子

4667

积分

4K家园VIP

Rank: 9Rank: 9Rank: 9

积分
4667
发表于 2022-10-28 18:43:27 来自手机 | 显示全部楼层
啊啊啊啊啊啊啊啊啊啊啊
回复 支持 反对

使用道具 举报

1

主题

1657

帖子

4577

积分

4K家园VIP

Rank: 9Rank: 9Rank: 9

积分
4577
发表于 2022-10-30 18:20:15 | 显示全部楼层
顶起顶起顶起
回复 支持 反对

使用道具 举报

您需要登录后才可以回帖 登录 | 立即注册

本版积分规则

精彩图文
Archiver|手机版|TAG|Sitemap|新帖|专题|联系我们:邮箱: 4kjia.com@gmail.com   

4k家园   ©2019