[4K电影] 警探奈特:侠盗 / Detective Knight: Rogue (2022)4K高清版本下载

[复制链接]

主题

帖子

0

积分

超级版主

Rank: 8Rank: 8

积分
0
 楼主| 发表于 2022-10-21 13:31:13 | 显示全部楼层 |阅读模式
本帖最后由 最爱4K哟 于 2022-10-21 13:48 编辑

QQ图片20221021134508_副本.png

◎标  题 警探奈特:侠盗
◎译  名 警探奈特
◎片  名 Detective Knight: Rogue
◎年  代 2022
◎产  地 美国
◎类  别 动作 / 惊悚
◎语  言 英语
◎上映日期 2022-10-21(美国)
◎IMDb评分 0/10 from 0 users
◎IMDb链接 https://www.imdb.com/title/tt21435436/
◎豆瓣评分 0/10 from 0 users
◎豆瓣链接 https://movie.douban.com/subject/36054120/
◎片  长 105分钟
◎导  演 爱德华·德雷克 Edward Drake
◎编  剧 爱德华·德雷克 Edward Drake / 科里·拉奇 Corey Large
◎演  员 布鲁斯·威利斯 Bruce Willis
       洛奇林·莫罗 Lochlyn Munro
       科里·拉奇 Corey Large
       博·米尔乔夫 Beau Mirchoff
       迈克尔·艾克朗德 Michael Eklund
       科迪·基尔斯利 Cody Kearsley
       凯雅·金 Keeya King
       吉米·让-刘易斯 Jimmy Jean-Louis
       特雷弗·格雷茨基 Trevor Gretzky


◎简  介


  讲述老警探詹姆斯·奈特(布鲁斯·威利斯 饰)致力于守护洛杉矶的安宁,万圣节前夕,一群蒙面匪徒在城市作恶、重伤奈特的搭档。为了缉凶,奈特一路追缉劫匪到了纽约,在那里,他的往事也将被揭晓,他必须在救赎的同时自我救赎。

Video
ID : 1
Format : HEVC
Format/Info : High Efficiency Video Coding
Format profile : Main 10@L5@High
HDR format : SMPTE ST 2086, HDR10 compatible
Codec ID : V_MPEGH/ISO/HEVC
Duration : 1 h 45 min
Bit rate : 24.7 Mb/s
Width : 3 832 pixels
Height : 1 600 pixels
Display aspect ratio : 2.40:1
Frame rate mode : Constant
Frame rate : 23.976 FPS
Color space : YUV
Chroma subsampling : 4:2:0 (Type 2)
Bit depth : 10 bits
Bits/(Pixel*Frame) : 0.168
Stream size : 18.1 GiB (98%)
Default : Yes
Forced : No
Color range : Limited
Color primaries : BT.2020
Transfer characteristics : PQ
Matrix coefficients : BT.2020 non-constant
Mastering display color primaries : Display P3
Mastering display luminance : min: 0.0001 cd/m2, max: 1000 cd/m2
Maximum Content Light Level : 997 cd/m2
Maximum Frame-Average Light Level : 997 cd/m2

Audio
ID : 2
Format : AC-3
Format/Info : Audio Coding 3
Commercial name : Dolby Digital
Codec ID : A_AC3
Duration : 1 h 45 min
Bit rate mode : Constant
Bit rate : 384 kb/s
Channel(s) : 6 channels
Channel layout : L R C LFE Ls Rs
Sampling rate : 48.0 kHz
Frame rate : 31.250 FPS (1536 SPF)
Compression mode : Lossy
Stream size : 289 MiB (2%)
Language : English
Service kind : Complete Main
Default : Yes
Forced : No

Text #1
ID : 3
Format : UTF-8
Codec ID : S_TEXT/UTF8
Codec ID/Info : UTF-8 Plain Text
Duration : 1 h 38 min
Bit rate : 58 b/s
Frame rate : 0.231 FPS
Count of elements : 1372
Stream size : 42.1 KiB (0%)
Language : English
Default : Yes
Forced : No

Text #2
ID : 4
Format : UTF-8
Codec ID : S_TEXT/UTF8
Codec ID/Info : UTF-8 Plain Text
Duration : 1 h 39 min
Bit rate : 66 b/s
Frame rate : 0.274 FPS
Count of elements : 1631
Stream size : 48.6 KiB (0%)
Title : SDH
Language : English
Default : No
Forced : No

为了更好体验下载、推荐使用qBittorrent、uTorrent、BitComet等下载软件,有条件的推荐115或会员下载软件!

下载地址:

游客,如果您要查看本帖隐藏内容请回复

游客,如果您要查看本帖隐藏内容请回复






上一篇:雷蒙德和雷 [简繁中字] Raymond Ray (2022) 4K高清版本下载
下一篇:危险游戏 / Dangerous Game (2023) 4K高清版本下载
回复

使用道具 举报

0

主题

1365

帖子

4111

积分

4K家园VIP

Rank: 9Rank: 9Rank: 9

积分
4111
发表于 2022-10-21 13:31:19 来自手机 | 显示全部楼层
谢谢楼主
回复 支持 反对

使用道具 举报

55

主题

1581

帖子

4575

积分

4K家园VIP

Rank: 9Rank: 9Rank: 9

积分
4575
发表于 2022-10-21 13:31:20 | 显示全部楼层
LZ帖子不给力,勉强给回复下吧
回复 支持 反对

使用道具 举报

主题

帖子

31

积分

新手上路

Rank: 1

积分
31
发表于 2022-10-21 20:34:22 | 显示全部楼层
回复看链接
回复 支持 反对

使用道具 举报

0

主题

1518

帖子

4368

积分

4K家园VIP

Rank: 9Rank: 9Rank: 9

积分
4368
发表于 2022-10-21 22:24:59 | 显示全部楼层
围观 围观 沙发在哪里!!!
回复 支持 反对

使用道具 举报

主题

帖子

0

积分

新手上路

Rank: 1

积分
0
发表于 2022-10-22 16:30:14 | 显示全部楼层
感谢楼主分享
回复 支持 反对

使用道具 举报

2

主题

1520

帖子

4364

积分

4K家园VIP

Rank: 9Rank: 9Rank: 9

积分
4364
发表于 2022-10-23 19:43:13 | 显示全部楼层
看帖要回,回帖才健康,在踩踩,楼主辛苦了!
回复 支持 反对

使用道具 举报

0

主题

1431

帖子

4127

积分

中级会员

Rank: 4

积分
4127
发表于 2022-10-27 20:18:59 | 显示全部楼层
非常好,顶一下
回复 支持 反对

使用道具 举报

头像被屏蔽

主题

帖子

1017

积分

禁止访问

积分
1017
发表于 2022-11-2 16:55:27 | 显示全部楼层
提示: 作者被禁止或删除 内容自动屏蔽
回复

使用道具 举报

0

主题

1

帖子

6

积分

新手上路

Rank: 1

积分
6
发表于 2022-11-16 21:03:06 | 显示全部楼层
感谢楼主
回复

使用道具 举报

您需要登录后才可以回帖 登录 | 立即注册

本版积分规则

精彩图文
Archiver|手机版|TAG|Sitemap|新帖|专题|联系我们:邮箱: 4kjia.com@gmail.com   

4k家园   ©2019