[4K电影] 邂逅 / A Chance Encounter (2022) 4K高清版本下载

[复制链接]

主题

帖子

0

积分

超级版主

Rank: 8Rank: 8

积分
0
 楼主| 发表于 2022-10-21 13:57:52 | 显示全部楼层 |阅读模式
本帖最后由 最爱4K哟 于 2022-10-21 14:06 编辑

QQ图片20221021140451_副本.png

◎标  题 邂逅
◎片  名 A Chance Encounter
◎年  代 2022
◎产  地 美国
◎类  别 爱情 / 音乐
◎语  言 英语
◎上映日期 2022-10-28(美国)
◎IMDb评分 0/10 from 0 users
◎IMDb链接 https://www.imdb.com/title/tt12399724/
◎豆瓣评分 0/10 from 0 users
◎豆瓣链接 https://movie.douban.com/subject/36111125/
◎片  长 91分钟◎导  演 亚历山大·杰弗里 Alexander Jeffery
◎演  员 保罗·彼得森 Paul Petersen
                   安德烈·冯·坎彭 Andrea von Kampen
                   杰森·爱德华兹Jason Edwards
                   伊丽莎白·斯坦霍特 Elizabeth Stenholt
                   文森佐·维文齐奥 Vincenzo Vivenzio
                   凯尔·布鲁尼克 Kyle Brunick
                   肯尼·伯恩斯 Kenny Burns


◎简  介


  在意大利的西西里岛小镇陶尔米纳,一位追求灵感的有抱负的诗人遇到了一位试图写下她那首流行歌曲的民谣歌手。
Video
ID : 1
Format : HEVC
Format/Info : High Efficiency Video Coding
Format profile : Main 10@L5@High
Codec ID : V_MPEGH/ISO/HEVC
Duration : 1 h 31 min
Bit rate : 12.0 Mb/s
Width : 3 840 pixels
Height : 1 404 pixels
Display aspect ratio : 2.735
Frame rate mode : Constant
Frame rate : 23.976 FPS
Color space : YUV
Chroma subsampling : 4:2:0
Bit depth : 10 bits
Bits/(Pixel*Frame) : 0.093
Stream size : 7.66 GiB (97%)
Language : English
Default : Yes
Forced : No
Color range : Limited
Color primaries : BT.709
Transfer characteristics : BT.709
Matrix coefficients : BT.709

Audio
ID : 2
Format : AC-3
Format/Info : Audio Coding 3
Commercial name : Dolby Digital
Codec ID : A_AC3
Duration : 1 h 31 min
Bit rate mode : Constant
Bit rate : 384 kb/s
Channel(s) : 6 channels
Channel layout : L R C LFE Ls Rs
Sampling rate : 48.0 kHz
Frame rate : 31.250 FPS (1536 SPF)
Compression mode : Lossy
Stream size : 251 MiB (3%)
Language : English
Service kind : Complete Main
Default : Yes
Forced : No

Text #1
ID : 3
Format : UTF-8
Codec ID : S_TEXT/UTF8
Codec ID/Info : UTF-8 Plain Text
Duration : 1 h 30 min
Bit rate : 74 b/s
Frame rate : 0.282 FPS
Count of elements : 1538
Stream size : 49.6 KiB (0%)
Title : SDH
Language : English
Default : No
Forced : No

Text #2
ID : 4
Format : UTF-8
Codec ID : S_TEXT/UTF8
Codec ID/Info : UTF-8 Plain Text
Duration : 1 h 30 min
Bit rate : 71 b/s
Frame rate : 0.268 FPS
Count of elements : 1458
Stream size : 47.5 KiB (0%)
Language : English
Default : No
Forced : No

Menu
00:00:00.000 : en:Chapter 1
00:08:53.575 : en:Chapter 2
00:18:36.449 : en:Chapter 3
00:29:24.723 : en:Chapter 4
00:41:49.009 : en:Chapter 5
00:51:02.687 : en:Chapter 6
01:00:40.974 : en:Chapter 7
01:11:44.763 : en:Chapter 8
01:20:23.323 : en:Chapter 9
01:28:48.036 : en:Chapter 10

为了更好体验下载、推荐使用qBittorrent、uTorrent、BitComet等下载软件,有条件的推荐115或会员下载软件!

下载地址:
游客,如果您要查看本帖隐藏内容请回复






上一篇:危险游戏 / Dangerous Game (2023) 4K高清版本下载
下一篇:阿根廷 1985[简繁中字] / Argentina 1985 (2022) 4K高清版本下载
回复

使用道具 举报

2

主题

1487

帖子

4299

积分

中级会员

Rank: 4

积分
4299
发表于 2022-10-21 13:57:59 | 显示全部楼层
支持楼主,用户楼主,楼主英明呀!!!
回复 支持 反对

使用道具 举报

主题

帖子

0

积分

新手上路

Rank: 1

积分
0
发表于 2022-10-22 16:29:47 | 显示全部楼层
感谢楼主分享
回复 支持 反对

使用道具 举报

主题

帖子

6

积分

新手上路

Rank: 1

积分
6
发表于 2022-10-23 12:51:37 | 显示全部楼层
法国德国
回复

使用道具 举报

4

主题

1419

帖子

4268

积分

4K家园VIP

Rank: 9Rank: 9Rank: 9

积分
4268
发表于 2022-10-23 22:40:57 | 显示全部楼层
高手啊
回复 支持 反对

使用道具 举报

1

主题

1365

帖子

4119

积分

4K家园VIP

Rank: 9Rank: 9Rank: 9

积分
4119
发表于 2022-10-24 02:56:59 | 显示全部楼层
我也是坐沙发的
回复 支持 反对

使用道具 举报

3

主题

1395

帖子

4206

积分

4K家园VIP

Rank: 9Rank: 9Rank: 9

积分
4206
发表于 2022-10-31 12:02:40 | 显示全部楼层
报告!别开枪,我就是路过来看看的。。。
回复 支持 反对

使用道具 举报

主题

帖子

0

积分

新手上路

Rank: 1

积分
0
发表于 2022-10-31 14:45:41 来自手机 | 显示全部楼层
好资源
回复

使用道具 举报

2

主题

1420

帖子

4050

积分

4K家园VIP

Rank: 9Rank: 9Rank: 9

积分
4050
发表于 2022-11-1 09:27:40 | 显示全部楼层
感谢分享
回复 支持 反对

使用道具 举报

您需要登录后才可以回帖 登录 | 立即注册

本版积分规则

精彩图文
Archiver|手机版|TAG|Sitemap|新帖|专题|联系我们:邮箱: 4kjia.com@gmail.com   

4k家园   ©2019