[4K电影] 亲爱的别担心[简繁粤中字]/Dont.Worry.Darling(2022)4K高清版本下载

[复制链接]

主题

帖子

0

积分

超级版主

Rank: 8Rank: 8

积分
0
 楼主| 发表于 2022-10-24 13:41:02 | 显示全部楼层 |阅读模式
本帖最后由 最爱4K哟 于 2022-10-28 10:22 编辑

QQ图片20221024133105_副本.png

◎标  题 亲爱的别担心
◎译  名 别担心亲爱的(港 / 台)
◎片  名 Don't Worry Darling
◎年  代 2022
◎产  地 美国
◎类  别 剧情 / 悬疑 / 惊悚
◎语  言 英语
◎上映日期 2022-09-05(威尼斯电影节) / 2022-09-23(美国)
◎IMDb评分 6.3/10 from 34605 users 更新 : 2022-10-24
◎IMDb链接 https://www.imdb.com/title/tt10731256/
◎豆瓣评分 6.7/10 from 617 users 更新 : 2022-10-24
◎豆瓣链接 https://movie.douban.com/subject/34968378/
◎片  长 122分钟
◎导  演 奥利维亚·王尔德 Olivia Wilde
◎编  剧 凯瑟琳·西尔伯曼 Katie Silberman / 凯莉·凡·戴克 Carey Van Dyke / 肖恩·范·戴克 Shane Van Dyke
◎演  员 弗洛伦丝·皮尤 Florence Pugh
       哈里·斯泰尔斯 Harry Styles
       克里斯·派恩 Chris Pine
       奥利维亚·王尔德 Olivia Wilde
       琪琪·莱恩 KiKi Layne
       嘉玛·陈 Gemma Chan
       尼克·克罗尔 Nick Kroll
       西德尼·钱德勒 Sydney Chandler
       凯特·贝兰特 Kate Berlant
       阿西夫·阿里 Asif Ali
       道格拉斯·史密斯 Douglas Smith
       蒂莫西·西蒙斯 Timothy Simons
       阿里尔·斯泰切尔 Ari'el Stachel
       史蒂夫·伯格 Steve Berg
       黛西·苏戴奇斯 Daisy Sudeikis
       马塞罗·莱耶斯 Marcello Reyes
       梦露·克莱恩 Monroe Cline
       蒂塔·万·提斯 Dita Von Teese
       泰勒·梅 Taylor May
       莱克茜·休姆 Lexy Hulme
       提娅.利泽伍德 Toiya Leatherwood
       艾丽安·飞利浦 Arianne Phillips


◎简  介


  这部心理惊悚题材的影片故事设置在1950年代加州沙漠里的一个与世隔绝的乌托邦式群体当中,讲述一位家庭主妇(Pugh饰)意外地发现了看似平静的生活中的恐怖秘密。

Video
ID : 1
Format : HEVC
Format/Info : High Efficiency Video Coding
Format profile : Main 10@L5@High
HDR format : Dolby Vision, Version 1.0, dvhe.05.06, BL+RPU
Codec ID : V_MPEGH/ISO/HEVC
Duration : 2 h 2 min
Bit rate : 24.6 Mb/s
Width : 3 840 pixels
Height : 1 606 pixels
Display aspect ratio : 2.40:1
Frame rate mode : Constant
Frame rate : 23.976 (24000/1001) FPS
Color space : YUV
Chroma subsampling : 4:2:0
Bit depth : 10 bits
Bits/(Pixel*Frame) : 0.167
Stream size : 21.1 GiB (97%)
Default : Yes
Forced : No

Audio
ID : 2
Format : E-AC-3 JOC
Format/Info : Enhanced AC-3 with Joint Object Coding
Commercial name : Dolby Digital Plus with Dolby Atmos
Codec ID : A_EAC3
Duration : 2 h 2 min
Bit rate mode : Constant
Bit rate : 768 kb/s
Channel(s) : 6 channels
Channel layout : L R C LFE Ls Rs
Sampling rate : 48.0 kHz
Frame rate : 31.250 FPS (1536 SPF)
Compression mode : Lossy
Stream size : 674 MiB (3%)
Language : English
Service kind : Complete Main
Default : Yes
Forced : No
Complexity index : 16
Number of dynamic objects : 15
Bed channel count : 1 channel
Bed channel configuration : LFE

Text #1
ID : 3
Format : UTF-8
Codec ID : S_TEXT/UTF8
Codec ID/Info : UTF-8 Plain Text
Duration : 2 h 0 min
Bit rate : 63 b/s
Frame rate : 0.243 FPS
Count of elements : 1761
Stream size : 55.8 KiB (0%)
Language : English
Default : No
Forced : No

Text #2
ID : 4
Format : UTF-8
Codec ID : S_TEXT/UTF8
Codec ID/Info : UTF-8 Plain Text
Duration : 2 h 0 min
Bit rate : 74 b/s
Frame rate : 0.279 FPS
Count of elements : 2020
Stream size : 65.8 KiB (0%)
Title : SDH
Language : English
Default : No
Forced : No

Text #3
ID : 5
Format : UTF-8
Codec ID : S_TEXT/UTF8
Codec ID/Info : UTF-8 Plain Text
Duration : 2 h 2 min
Bit rate : 78 b/s
Frame rate : 0.184 FPS
Count of elements : 1347
Stream size : 69.9 KiB (0%)
Language : Arabic
Default : No
Forced : No

Text #4
ID : 6
Format : UTF-8
Codec ID : S_TEXT/UTF8
Codec ID/Info : UTF-8 Plain Text
Duration : 2 h 2 min
Bit rate : 74 b/s
Frame rate : 0.181 FPS
Count of elements : 1329
Stream size : 67.0 KiB (0%)
Language : Bulgarian
Default : No
Forced : No

Text #5
ID : 7
Format : UTF-8
Codec ID : S_TEXT/UTF8
Codec ID/Info : UTF-8 Plain Text
Duration : 2 h 2 min
Bit rate : 46 b/s
Frame rate : 0.184 FPS
Count of elements : 1348
Stream size : 41.2 KiB (0%)
Language : Czech
Default : No
Forced : No

Text #6
ID : 8
Format : UTF-8
Codec ID : S_TEXT/UTF8
Codec ID/Info : UTF-8 Plain Text
Duration : 2 h 2 min
Bit rate : 46 b/s
Frame rate : 0.160 FPS
Count of elements : 1173
Stream size : 41.3 KiB (0%)
Language : Danish
Default : No
Forced : No

Text #7
ID : 9
Format : UTF-8
Codec ID : S_TEXT/UTF8
Codec ID/Info : UTF-8 Plain Text
Duration : 2 h 2 min
Bit rate : 62 b/s
Frame rate : 0.213 FPS
Count of elements : 1565
Stream size : 55.8 KiB (0%)
Title : SDH
Language : German
Default : No
Forced : No

Text #8
ID : 10
Format : UTF-8
Codec ID : S_TEXT/UTF8
Codec ID/Info : UTF-8 Plain Text
Duration : 2 h 2 min
Bit rate : 53 b/s
Frame rate : 0.181 FPS
Count of elements : 1333
Stream size : 48.2 KiB (0%)
Language : German
Default : No
Forced : No

Text #9
ID : 11
Format : UTF-8
Codec ID : S_TEXT/UTF8
Codec ID/Info : UTF-8 Plain Text
Duration : 2 h 2 min
Bit rate : 78 b/s
Frame rate : 0.185 FPS
Count of elements : 1354
Stream size : 69.8 KiB (0%)
Language : Greek
Default : No
Forced : No

Text #10
ID : 12
Format : UTF-8
Codec ID : S_TEXT/UTF8
Codec ID/Info : UTF-8 Plain Text
Duration : 2 h 2 min
Bit rate : 47 b/s
Frame rate : 0.182 FPS
Count of elements : 1335
Stream size : 42.8 KiB (0%)
Language : Spanish
Default : No
Forced : No

Text #11
ID : 13
Format : UTF-8
Codec ID : S_TEXT/UTF8
Codec ID/Info : UTF-8 Plain Text
Duration : 2 h 2 min
Bit rate : 48 b/s
Frame rate : 0.185 FPS
Count of elements : 1353
Stream size : 43.1 KiB (0%)
Title : Latin American
Language : Spanish
Default : No
Forced : No

Text #12
ID : 14
Format : UTF-8
Codec ID : S_TEXT/UTF8
Codec ID/Info : UTF-8 Plain Text
Duration : 2 h 2 min
Bit rate : 40 b/s
Frame rate : 0.184 FPS
Count of elements : 1350
Stream size : 36.6 KiB (0%)
Language : Estonian
Default : No
Forced : No

Text #13
ID : 15
Format : UTF-8
Codec ID : S_TEXT/UTF8
Codec ID/Info : UTF-8 Plain Text
Duration : 2 h 2 min
Bit rate : 46 b/s
Frame rate : 0.184 FPS
Count of elements : 1348
Stream size : 41.5 KiB (0%)
Language : Finnish
Default : No
Forced : No

Text #14
ID : 16
Format : UTF-8
Codec ID : S_TEXT/UTF8
Codec ID/Info : UTF-8 Plain Text
Duration : 2 h 2 min
Bit rate : 43 b/s
Frame rate : 0.189 FPS
Count of elements : 1383
Stream size : 38.8 KiB (0%)
Language : French
Default : No
Forced : No

Text #15
ID : 17
Format : UTF-8
Codec ID : S_TEXT/UTF8
Codec ID/Info : UTF-8 Plain Text
Duration : 2 h 2 min
Bit rate : 66 b/s
Frame rate : 0.184 FPS
Count of elements : 1349
Stream size : 59.9 KiB (0%)
Language : Hebrew
Default : No
Forced : No

Text #16
ID : 18
Format : UTF-8
Codec ID : S_TEXT/UTF8
Codec ID/Info : UTF-8 Plain Text
Duration : 2 h 2 min
Bit rate : 51 b/s
Frame rate : 0.184 FPS
Count of elements : 1349
Stream size : 46.1 KiB (0%)
Language : Hungarian
Default : No
Forced : No

Text #17
ID : 19
Format : UTF-8
Codec ID : S_TEXT/UTF8
Codec ID/Info : UTF-8 Plain Text
Duration : 2 h 2 min
Bit rate : 47 b/s
Frame rate : 0.183 FPS
Count of elements : 1343
Stream size : 42.1 KiB (0%)
Language : Indonesian
Default : No
Forced : No

Text #18
ID : 20
Format : UTF-8
Codec ID : S_TEXT/UTF8
Codec ID/Info : UTF-8 Plain Text
Duration : 2 h 2 min
Bit rate : 45 b/s
Frame rate : 0.173 FPS
Count of elements : 1267
Stream size : 40.9 KiB (0%)
Language : Italian
Default : No
Forced : No

Text #19
ID : 21
Format : UTF-8
Codec ID : S_TEXT/UTF8
Codec ID/Info : UTF-8 Plain Text
Duration : 2 h 2 min
Bit rate : 50 b/s
Frame rate : 0.185 FPS
Count of elements : 1358
Stream size : 45.2 KiB (0%)
Language : Lithuanian
Default : No
Forced : No

Text #20
ID : 22
Format : UTF-8
Codec ID : S_TEXT/UTF8
Codec ID/Info : UTF-8 Plain Text
Duration : 2 h 2 min
Bit rate : 47 b/s
Frame rate : 0.184 FPS
Count of elements : 1349
Stream size : 42.0 KiB (0%)
Language : Latvian
Default : No
Forced : No

Text #21
ID : 23
Format : UTF-8
Codec ID : S_TEXT/UTF8
Codec ID/Info : UTF-8 Plain Text
Duration : 2 h 2 min
Bit rate : 41 b/s
Frame rate : 0.138 FPS
Count of elements : 1009
Stream size : 36.9 KiB (0%)
Language : Dutch
Default : No
Forced : No

Text #22
ID : 24
Format : UTF-8
Codec ID : S_TEXT/UTF8
Codec ID/Info : UTF-8 Plain Text
Duration : 2 h 2 min
Bit rate : 43 b/s
Frame rate : 0.152 FPS
Count of elements : 1114
Stream size : 38.6 KiB (0%)
Language : Norwegian
Default : No
Forced : No

Text #23
ID : 25
Format : UTF-8
Codec ID : S_TEXT/UTF8
Codec ID/Info : UTF-8 Plain Text
Duration : 2 h 2 min
Bit rate : 51 b/s
Frame rate : 0.185 FPS
Count of elements : 1356
Stream size : 46.4 KiB (0%)
Language : Portuguese
Default : No
Forced : No

Text #24
ID : 26
Format : UTF-8
Codec ID : S_TEXT/UTF8
Codec ID/Info : UTF-8 Plain Text
Duration : 2 h 2 min
Bit rate : 49 b/s
Frame rate : 0.184 FPS
Count of elements : 1351
Stream size : 44.2 KiB (0%)
Title : Brazilian
Language : Portuguese
Default : No
Forced : No

Text #25
ID : 27
Format : UTF-8
Codec ID : S_TEXT/UTF8
Codec ID/Info : UTF-8 Plain Text
Duration : 2 h 2 min
Bit rate : 107 b/s
Frame rate : 0.186 FPS
Count of elements : 1359
Stream size : 96.5 KiB (0%)
Language : Thai
Default : No
Forced : No

Text #26
ID : 28
Format : UTF-8
Codec ID : S_TEXT/UTF8
Codec ID/Info : UTF-8 Plain Text
Duration : 2 h 2 min
Bit rate : 47 b/s
Frame rate : 0.184 FPS
Count of elements : 1351
Stream size : 42.1 KiB (0%)
Title : 繁体中文
Language : Chinese
Default : No
Forced : No

Text #27
ID : 29
Format : UTF-8
Codec ID : S_TEXT/UTF8
Codec ID/Info : UTF-8 Plain Text
Duration : 1 h 58 min
Bit rate : 50 b/s
Frame rate : 0.191 FPS
Count of elements : 1350
Stream size : 43.6 KiB (0%)
Title : 简体中文
Language : Chinese
Default : No
Forced : No

Text #28
ID : 30
Format : UTF-8
Codec ID : S_TEXT/UTF8
Codec ID/Info : UTF-8 Plain Text
Duration : 2 h 2 min
Bit rate : 39 b/s
Frame rate : 0.180 FPS
Count of elements : 1316
Stream size : 35.3 KiB (0%)
Title : Mandarin Chinese Traditional
Language : Chinese
Default : No
Forced : No

Menu
00:00:00.000 : en:Chapter 01
00:09:55.011 : en:Chapter 02
00:18:01.081 : en:Chapter 03
00:27:59.554 : en:Chapter 04
00:35:25.500 : en:Chapter 05
00:45:20.136 : en:Chapter 06
00:55:13.146 : en:Chapter 07
01:04:20.694 : en:Chapter 08
01:12:40.193 : en:Chapter 09
01:21:07.742 : en:Chapter 10
01:30:43.109 : en:Chapter 11
01:39:05.737 : en:Chapter 12
01:48:33.930 : en:Chapter 13
01:55:42.859 : en:Chapter 14

为了更好体验下载、推荐使用qBittorrent、uTorrent、BitComet等下载软件,有条件的推荐115或会员下载软件!

下载地址:
游客,如果您要查看本帖隐藏内容请回复

游客,如果您要查看本帖隐藏内容请回复

游客,如果您要查看本帖隐藏内容请回复

游客,如果您要查看本帖隐藏内容请回复

游客,如果您要查看本帖隐藏内容请回复

游客,如果您要查看本帖隐藏内容请回复

游客,如果您要查看本帖隐藏内容请回复








上一篇:阿根廷 1985[简繁中字] / Argentina 1985 (2022) 4K高清版本下载
下一篇:珀尔 / Pearl (2022) 4K高清版本下载
回复

使用道具 举报

1

主题

1462

帖子

4196

积分

4K家园VIP

Rank: 9Rank: 9Rank: 9

积分
4196
发表于 2022-10-24 13:41:06 | 显示全部楼层
支持,赞一个
回复 支持 反对

使用道具 举报

主题

帖子

0

积分

4K家园VIP

Rank: 9Rank: 9Rank: 9

积分
0
发表于 2022-10-24 18:33:04 | 显示全部楼层
太好啦&萬分感謝版主的無私發佈分享%
回复 支持 反对

使用道具 举报

主题

帖子

2701

积分

注册会员

Rank: 2

积分
2701
发表于 2022-10-24 20:48:25 | 显示全部楼层
谢谢楼主分享
回复 支持 反对

使用道具 举报

主题

帖子

15

积分

新手上路

Rank: 1

积分
15
发表于 2022-10-24 22:10:11 | 显示全部楼层
6666666666666
回复 支持 反对

使用道具 举报

主题

帖子

0

积分

4K家园VIP

Rank: 9Rank: 9Rank: 9

积分
0
发表于 2022-10-25 12:21:18 | 显示全部楼层
谢谢楼主分享
回复 支持 反对

使用道具 举报

2

主题

1734

帖子

4790

积分

4K家园VIP

Rank: 9Rank: 9Rank: 9

积分
4790
发表于 2022-10-25 19:59:14 | 显示全部楼层
这么强,支持楼主,佩服
回复 支持 反对

使用道具 举报

0

主题

1228

帖子

3698

积分

4K家园VIP

Rank: 9Rank: 9Rank: 9

积分
3698
发表于 2022-10-25 22:20:54 | 显示全部楼层
额.....这个可以有
回复 支持 反对

使用道具 举报

51

主题

1568

帖子

4524

积分

4K家园VIP

Rank: 9Rank: 9Rank: 9

积分
4524
发表于 2022-10-26 02:44:50 | 显示全部楼层
边撸边过
回复 支持 反对

使用道具 举报

1

主题

1589

帖子

4615

积分

4K家园VIP

Rank: 9Rank: 9Rank: 9

积分
4615
发表于 2022-10-27 20:28:45 | 显示全部楼层
前排,哇咔咔
回复 支持 反对

使用道具 举报

您需要登录后才可以回帖 登录 | 立即注册

本版积分规则

精彩图文
Archiver|手机版|TAG|Sitemap|新帖|专题|联系我们:邮箱: 4kjia.com@gmail.com   

4k家园   ©2019