[4K电影] 珀尔 / Pearl (2022) 4K高清版本下载

[复制链接]

主题

帖子

0

积分

超级版主

Rank: 8Rank: 8

积分
0
 楼主| 发表于 2022-10-25 17:16:32 | 显示全部楼层 |阅读模式
QQ图片20221025170415_副本.png

◎标  题 珀尔
◎译  名 “X”前传电影 / 欲珠
◎片  名 Pearl
◎年  代 2022
◎产  地 加拿大 / 美国
◎类  别 恐怖
◎语  言 英语
◎上映日期 2022-09-03(威尼斯电影节) / 2022-09-16(美国)
◎IMDb评分 7.2/10 from 11276 users 更新 : 2022-10-25
◎IMDb链接 https://www.imdb.com/title/tt18925334/
◎豆瓣评分 7.3/10 from 4497 users 更新 : 2022-10-25
◎豆瓣链接 https://movie.douban.com/subject/35801819/
◎片  长 102分钟
◎导  演 缇·威斯特 Ti West
◎编  剧 缇·威斯特 Ti West / 米娅·高斯 Mia Goth
◎演  员 大卫·科伦斯韦 David Corenswet
       米娅·高斯 Mia Goth
       艾玛·詹金斯·普罗 Emma Jenkins-Purro
       阿利斯泰尔·休厄尔 Alistair Sewell
       马修·桑德兰 Matthew Sunderland
       坦蒂·莱特 Tandi Wright
       马尔戈西亚·图尔赞斯卡 Malgosia Turzanska


◎简  介


  聚焦《X》中邪恶的老婆婆Pearl从前的故事,和那场杀戮发生的房子,在1918年……《X》女主高斯出演Pearl,片中对她的身份设定已有所展现。
Video
ID : 1
Format : HEVC
Format/Info : High Efficiency Video Coding
Format profile : Main 10@L5@High
HDR format : SMPTE ST 2086, HDR10 compatible
Codec ID : V_MPEGH/ISO/HEVC
Duration : 1 h 42 min
Bit rate : 24.3 Mb/s
Width : 3 836 pixels
Height : 1 600 pixels
Display aspect ratio : 2.40:1
Original display aspect ratio : 2.40:1
Frame rate mode : Constant
Frame rate : 23.976 FPS
Color space : YUV
Chroma subsampling : 4:2:0 (Type 2)
Bit depth : 10 bits
Bits/(Pixel*Frame) : 0.165
Stream size : 17.3 GiB (97%)
Language : English
Default : Yes
Forced : No
Color range : Limited
Color primaries : BT.2020
Transfer characteristics : PQ
Matrix coefficients : BT.2020 non-constant
Mastering display color primaries : Display P3
Mastering display luminance : min: 0.0050 cd/m2, max: 1000 cd/m2
Maximum Content Light Level : 1268 cd/m2
Maximum Frame-Average Light Level : 395 cd/m2

Audio
ID : 2
Format : E-AC-3 JOC
Format/Info : Enhanced AC-3 with Joint Object Coding
Commercial name : Dolby Digital Plus with Dolby Atmos
Codec ID : A_EAC3
Duration : 1 h 42 min
Bit rate mode : Constant
Bit rate : 768 kb/s
Channel(s) : 6 channels
Channel layout : L R C LFE Ls Rs
Sampling rate : 48.0 kHz
Frame rate : 31.250 FPS (1536 SPF)
Compression mode : Lossy
Stream size : 561 MiB (3%)
Language : English
Service kind : Complete Main
Default : Yes
Forced : No
Complexity index : 16
Number of dynamic objects : 15
Bed channel count : 1 channel
Bed channel configuration : LFE

Text #1
ID : 3
Format : UTF-8
Codec ID : S_TEXT/UTF8
Codec ID/Info : UTF-8 Plain Text
Duration : 1 h 34 min
Bit rate : 42 b/s
Frame rate : 0.191 FPS
Count of elements : 1083
Stream size : 29.5 KiB (0%)
Title : SDH
Language : English
Default : No
Forced : No

Text #2
ID : 4
Format : UTF-8
Codec ID : S_TEXT/UTF8
Codec ID/Info : UTF-8 Plain Text
Duration : 1 h 32 min
Bit rate : 38 b/s
Frame rate : 0.162 FPS
Count of elements : 897
Stream size : 25.8 KiB (0%)
Language : English
Default : No
Forced : No

Text #3
ID : 5
Format : UTF-8
Codec ID : S_TEXT/UTF8
Codec ID/Info : UTF-8 Plain Text
Duration : 1 h 33 min
Bit rate : 37 b/s
Frame rate : 0.140 FPS
Count of elements : 784
Stream size : 25.6 KiB (0%)
Title : Latin American
Language : Spanish
Default : No
Forced : No

Menu
00:00:00.000 : en:Chapter 01
00:11:00.326 : en:Chapter 02
00:20:12.337 : en:Chapter 03
00:30:44.344 : en:Chapter 04
00:40:16.916 : en:Chapter 05
00:50:20.729 : en:Chapter 06
01:01:53.296 : en:Chapter 07
01:09:42.891 : en:Chapter 08
01:17:40.660 : en:Chapter 09
01:29:06.429 : en:Chapter 10
01:35:50.333 : en:Chapter 11

为了更好体验下载、推荐使用qBittorrent、uTorrent、BitComet等下载软件,有条件的推荐115或会员下载软件!

下载地址:
游客,如果您要查看本帖隐藏内容请回复

游客,如果您要查看本帖隐藏内容请回复

游客,如果您要查看本帖隐藏内容请回复

游客,如果您要查看本帖隐藏内容请回复






上一篇:亲爱的别担心[简繁粤中字]/Dont.Worry.Darling(2022)4K高清版本下载
下一篇:天堂门票 / Ticket To Paradise (2022) 4K高清版本下载
回复

使用道具 举报

2

主题

1395

帖子

4205

积分

4K家园VIP

Rank: 9Rank: 9Rank: 9

积分
4205
发表于 2022-10-25 17:16:39 | 显示全部楼层
一直在看
回复 支持 反对

使用道具 举报

59

主题

1613

帖子

4632

积分

4K家园VIP

Rank: 9Rank: 9Rank: 9

积分
4632
发表于 2022-10-25 17:30:34 | 显示全部楼层
4K家园不错,希望这种资源越多越好
回复 支持 反对

使用道具 举报

4

主题

1419

帖子

4268

积分

4K家园VIP

Rank: 9Rank: 9Rank: 9

积分
4268
发表于 2022-10-25 17:31:48 | 显示全部楼层
支持下楼主,顶一个
回复 支持 反对

使用道具 举报

5

主题

1405

帖子

4071

积分

中级会员

Rank: 4

积分
4071
发表于 2022-10-25 17:50:12 | 显示全部楼层
纯粹路过,没任何兴趣,仅仅是看在老用户份上回复一下
回复 支持 反对

使用道具 举报

0

主题

1431

帖子

4127

积分

中级会员

Rank: 4

积分
4127
发表于 2022-10-25 17:59:18 | 显示全部楼层
出4K版啦,下个看看
回复 支持 反对

使用道具 举报

主题

帖子

0

积分

4K家园VIP

Rank: 9Rank: 9Rank: 9

积分
0
发表于 2022-10-25 18:55:39 | 显示全部楼层
太好啦&萬分感謝版主的無私發佈分享%
回复 支持 反对

使用道具 举报

主题

帖子

0

积分

新手上路

Rank: 1

积分
0
发表于 2022-10-25 19:44:33 | 显示全部楼层
感謝版主的分享
回复 支持 反对

使用道具 举报

hongsheng721 该用户已被删除
发表于 2022-10-26 17:16:01 | 显示全部楼层
提示: 作者被禁止或删除 内容自动屏蔽
回复 支持 反对

使用道具 举报

主题

帖子

9

积分

新手上路

Rank: 1

积分
9
发表于 2022-10-26 17:56:51 来自手机 | 显示全部楼层
超级喜欢
回复

使用道具 举报

您需要登录后才可以回帖 登录 | 立即注册

本版积分规则

精彩图文
Archiver|手机版|TAG|Sitemap|新帖|专题|联系我们:邮箱: 4kjia.com@gmail.com   

4k家园   ©2019