拉米 / Ramy (2019) / 第三季全/4K高清版本下载

[复制链接]

主题

帖子

0

积分

超级版主

Rank: 8Rank: 8

积分
0
 楼主| 发表于 2022-10-26 22:00:35 | 显示全部楼层 |阅读模式

p2551207958_副本.jpg

◎译  名 拉米 第三季/拉米在美国
◎片  名 Ramy Season 3
◎年  代 2022
◎产  地 美国
◎类  别 剧情/喜剧/爱情
◎语  言 英语
◎上映日期 2022-09-30(美国)
◎IMDb评分 8.0/10 from 14353 users
◎IMDb链接 https://www.imdb.com/title/tt12690510/
◎豆瓣评分 0/10 from 0 users
◎豆瓣链接 https://douban.com/subject/35136725/
◎集  数 10
◎主  演 拉米·尤素夫 Ramy Youssef
       阿德 Ahd
       贝文·布茹 Bevin Bru
       贝拉·哈迪德 Bella Hadid
       埃迪·佩皮托恩 Eddie Pepitone
       莫斯塔法·埃尔莫西 Mostafa Elmorsy

◎简  介

  该剧由拉米·尤素夫打造并主演,探索在信奉“生命是道德的考验”的宗教团体和怀疑来生是否存在的千禧一代之间进退两难的感觉是什么。
  第3季讲述拉米和家人们被迫面临过着一种致力于世俗和谎言的生活,拉米几乎放弃了他的精神之旅,转而专注于他和叔叔的钻石生意。

Video
ID : 1
Format : HEVC
Format/Info : High Efficiency Video Coding
Format profile : Main 10@L5.1@Main
Codec ID : V_MPEGH/ISO/HEVC
Duration : 40 min 58 s
Bit rate : 15.8 Mb/s
Width : 3 840 pixels
Height : 2 160 pixels
Display aspect ratio : 16:9
Frame rate mode : Constant
Frame rate : 23.976 (24000/1001) FPS
Color space : YUV
Chroma subsampling : 4:2:0
Bit depth : 10 bits
Bits/(Pixel*Frame) : 0.079
Stream size : 4.51 GiB (98%)
Language : English
Default : Yes
Forced : No

Audio
ID : 2
Format : E-AC-3
Format/Info : Enhanced AC-3
Commercial name : Dolby Digital Plus
Codec ID : A_EAC3
Duration : 40 min 58 s
Bit rate mode : Constant
Bit rate : 256 kb/s
Channel(s) : 6 channels
Channel layout : L R C LFE Ls Rs
Sampling rate : 48.0 kHz
Frame rate : 31.250 FPS (1536 SPF)
Compression mode : Lossy
Stream size : 75.0 MiB (2%)
Language : English
Service kind : Complete Main
Default : Yes
Forced : No

Text #1
ID : 3
Format : UTF-8
Codec ID : S_TEXT/UTF8
Codec ID/Info : UTF-8 Plain Text
Duration : 39 min 17 s
Bit rate : 66 b/s
Frame rate : 0.277 FPS
Count of elements : 654
Stream size : 19.2 KiB (0%)
Title : English
Language : English
Default : No
Forced : No

Text #2
ID : 4
Format : UTF-8
Codec ID : S_TEXT/UTF8
Codec ID/Info : UTF-8 Plain Text
Duration : 38 min 51 s
Bit rate : 66 b/s
Frame rate : 0.286 FPS
Count of elements : 668
Stream size : 18.8 KiB (0%)
Title : Spanish
Language : Spanish
Default : No
Forced : No


下载地址:

游客,如果您要查看本帖隐藏内容请回复







上一篇:弱肉强食 [简繁中字] / Jungle (2022) / 第一季全/4K高清版本下载
下一篇:毁坏 / Wreck (2022)第一季全/4K高清版本下载
回复

使用道具 举报

2

主题

1402

帖子

4230

积分

4K家园VIP

Rank: 9Rank: 9Rank: 9

积分
4230
发表于 2022-10-26 22:01:20 | 显示全部楼层
感谢楼主发帖,前排顶起
回复 支持 反对

使用道具 举报

主题

帖子

9

积分

新手上路

Rank: 1

积分
9
发表于 2022-10-27 01:28:28 | 显示全部楼层
感谢楼主发帖,前排顶起!!!
回复 支持 反对

使用道具 举报

主题

帖子

0

积分

4K家园VIP

Rank: 9Rank: 9Rank: 9

积分
0
发表于 2022-10-27 08:19:57 | 显示全部楼层
太好啦&萬分感謝版主的無私發佈分享%
回复 支持 反对

使用道具 举报

1

主题

1432

帖子

4126

积分

4K家园VIP

Rank: 9Rank: 9Rank: 9

积分
4126
发表于 2022-10-28 12:04:54 来自手机 | 显示全部楼层
大人,此事必有蹊跷!
回复 支持 反对

使用道具 举报

2

主题

1466

帖子

4371

积分

4K家园VIP

Rank: 9Rank: 9Rank: 9

积分
4371
发表于 2022-10-30 00:05:57 | 显示全部楼层
围观 围观 沙发在哪里!!!
回复 支持 反对

使用道具 举报

0

主题

1443

帖子

4175

积分

4K家园VIP

Rank: 9Rank: 9Rank: 9

积分
4175
发表于 2022-10-30 19:55:09 来自手机 | 显示全部楼层
额.....这个可以有
回复 支持 反对

使用道具 举报

47

主题

1561

帖子

4525

积分

4K家园VIP

Rank: 9Rank: 9Rank: 9

积分
4525
发表于 2022-11-1 07:53:17 | 显示全部楼层
支持一下楼主发表的内容
回复 支持 反对

使用道具 举报

主题

帖子

0

积分

4K家园VIP

Rank: 9Rank: 9Rank: 9

积分
0
发表于 2022-11-1 08:51:00 | 显示全部楼层
太好啦&萬分感謝版主的無私發佈分享%
回复 支持 反对

使用道具 举报

您需要登录后才可以回帖 登录 | 立即注册

本版积分规则

精彩图文
Archiver|手机版|TAG|Sitemap|新帖|专题|联系我们:邮箱: 4kjia.com@gmail.com   

4k家园   ©2019