[4K电影] 落水狗 / Reservoir Dogs (1992) 4K高清版本下载

[复制链接]

主题

帖子

0

积分

超级版主

Rank: 8Rank: 8

积分
0
 楼主| 发表于 2022-10-28 10:34:39 | 显示全部楼层 |阅读模式
本帖最后由 最爱4K哟 于 2022-10-28 10:57 编辑

QQ图片20221028105713_副本.png

◎译  名 落水狗/霸道横行(台)/水库狗
◎片  名 Reservoir Dogs
◎年  代 1992
◎产  地 美国
◎类  别 惊悚/犯罪
◎语  言 英语
◎上映日期 1992-01-21(圣丹斯电影节)
◎IMDb评分 8.3/10 from 987833 users
◎IMDb链接 https://www.imdb.com/title/tt0105236/
◎豆瓣评分 8.4/10 from 187033 users
◎豆瓣链接 https://movie.douban.com/subject/1299603/
◎导  演 昆汀·塔伦蒂诺 Quentin Tarantino
◎编  剧 昆汀·塔伦蒂诺 Quentin Tarantino / 罗杰·阿夫瑞 Roger Avary
◎主  演 哈威·凯特尔 Harvey Keitel
       蒂姆·罗斯 Tim Roth
       迈克尔·马德森 Michael Madsen
       克里斯·潘 Chris Penn
       史蒂夫·布西密 Steve Buscemi
       昆汀·塔伦蒂诺 Quentin Tarantino
       大卫·斯廷 David Steen
       兰迪·布鲁克斯 Randy Brooks
       爱德华·邦克 Edward Bunker
       布尔·斯蒂尔斯 Burr Steers
       劳伦斯·蒂尔尼 Lawrence Tierney
       史蒂夫·赖特 Steven Wright
       柯克·鲍兹 Kirk Baltz
       劳伦斯·班德 Lawrence Bender


◎简  介


  黑帮老大乔·卡伯特(劳伦斯·蒂尔尼 饰)和他的儿子“好家伙”艾迪(克里斯·佩恩 饰)召集了六名强盗,准备到珠宝店抢劫一批天然钻石。这六个人彼此各不相识,甚至连对方的姓名都无从得知。乔为了保持机密,以颜色作为代号分别给六人起名为白先生(哈维·凯特尔 饰)、橙先生(蒂姆·罗思 饰)、金先生(迈克尔·马德森 饰)、粉先生(史蒂夫·布斯塞米 饰)、棕先生和蓝先生,并规定他们之间不能透露任何私事。
  抢劫时,六人中了警察的埋伏,蓝先生和棕先生当场死亡。白先生带着身受重伤的橙先生回到预定的聚集地——一个仓库。一会儿,粉先生、“好家伙”艾迪和金先生也来到这里,并活捉了一名警察。几人回忆案发时的情景,得出结论,六人中必定有人向警察告密。为了揪出告密者,大家审问拷打那个警察,仍然无法得知事实真相。本就互不了解的几个人,开始互相猜忌,事情的发展完全偏离了预设的轨道。

Video
ID : 1
Format : HEVC
Format/Info : High Efficiency Video Coding
Format profile : Main 10@L5@High
HDR format : SMPTE ST 2086, HDR10 compatible
Codec ID : V_MPEGH/ISO/HEVC
Duration : 1 h 39 min
Bit rate : 24.7 Mb/s
Width : 3 832 pixels
Height : 1 624 pixels
Display aspect ratio : 2.35:1
Frame rate mode : Constant
Frame rate : 23.976 FPS
Color space : YUV
Chroma subsampling : 4:2:0 (Type 2)
Bit depth : 10 bits
Bits/(Pixel*Frame) : 0.165
Stream size : 17.1 GiB (85%)
Language : English
Default : Yes
Forced : No
Color range : Limited
Color primaries : BT.2020
Transfer characteristics : PQ
Matrix coefficients : BT.2020 non-constant
Mastering display color primaries : Display P3
Mastering display luminance : min: 0.0050 cd/m2, max: 4000 cd/m2
Maximum Content Light Level : 136 cd/m2
Maximum Frame-Average Light Level : 29 cd/m2

Audio #1
ID : 2
Format : MLP FBA
Format/Info : Meridian Lossless Packing FBA
Commercial name : Dolby TrueHD
Codec ID : A_TRUEHD
Duration : 1 h 39 min
Bit rate mode : Variable
Bit rate : 1 227 kb/s
Maximum bit rate : 2 247 kb/s
Channel(s) : 6 channels
Channel layout : L R C LFE Ls Rs
Sampling rate : 48.0 kHz
Frame rate : 1 200.000 FPS (40 SPF)
Compression mode : Lossless
Stream size : 870 MiB (4%)
Title : Dolby TrueHD Audio / 5.1 / 48 kHz / 1227 kbps / 16-bit
Language : English
Default : Yes
Forced : No

Audio #2
ID : 3
Format : DTS XLL
Format/Info : Digital Theater Systems
Commercial name : DTS-HD Master Audio
Codec ID : A_DTS
Duration : 1 h 39 min
Bit rate mode : Variable
Bit rate : 1 829 kb/s
Channel(s) : 6 channels
Channel layout : C L R Ls Rs LFE
Sampling rate : 48.0 kHz
Frame rate : 93.750 FPS (512 SPF)
Bit depth : 16 bits
Compression mode : Lossless
Stream size : 1.27 GiB (6%)
Language : English
Default : No
Forced : No

Audio #3
ID : 4
Format : AC-3
Format/Info : Audio Coding 3
Commercial name : Dolby Digital
Format settings : Dolby Surround EX
Codec ID : A_AC3
Duration : 1 h 39 min
Bit rate mode : Constant
Bit rate : 640 kb/s
Channel(s) : 6 channels
Channel layout : L R C LFE Ls Rs
Sampling rate : 48.0 kHz
Frame rate : 31.250 FPS (1536 SPF)
Compression mode : Lossy
Delay relative to video : 23 ms
Stream size : 454 MiB (2%)
Title : Compatibility Track / Dolby Digital Audio / 5.1 / 48 kHz / 640 kbps
Language : English
Service kind : Complete Main
Default : No
Forced : No

Audio #4
ID : 5
Format : AC-3
Format/Info : Audio Coding 3
Commercial name : Dolby Digital
Codec ID : A_AC3
Duration : 1 h 39 min
Bit rate mode : Constant
Bit rate : 640 kb/s
Channel(s) : 2 channels
Channel layout : L R
Sampling rate : 48.0 kHz
Frame rate : 31.250 FPS (1536 SPF)
Compression mode : Lossy
Delay relative to video : 23 ms
Stream size : 454 MiB (2%)
Title : Commentary with Director/Writer Quentin Tarantino, Cinematographer Andrej Sekula, Executive producer Monte Hellman, Actors Lawrence Bender, Sally Menke, Tim Roth, Kirk Baltz, Chris Penn, Michael Madsen
Language : English
Service kind : Complete Main
Default : No
Forced : No

Text #1
ID : 6
Format : UTF-8
Codec ID : S_TEXT/UTF8
Codec ID/Info : UTF-8 Plain Text
Duration : 1 h 35 min
Bit rate : 81 b/s
Frame rate : 0.324 FPS
Count of elements : 1851
Stream size : 56.6 KiB (0%)
Language : English
Default : Yes
Forced : No

Text #2
ID : 7
Format : UTF-8
Codec ID : S_TEXT/UTF8
Codec ID/Info : UTF-8 Plain Text
Duration : 1 h 38 min
Bit rate : 89 b/s
Frame rate : 0.354 FPS
Count of elements : 2101
Stream size : 64.5 KiB (0%)
Title : SDH
Language : English
Default : No
Forced : No

Text #3
ID : 8
Format : UTF-8
Codec ID : S_TEXT/UTF8
Codec ID/Info : UTF-8 Plain Text
Duration : 1 h 35 min
Bit rate : 84 b/s
Frame rate : 0.283 FPS
Count of elements : 1611
Stream size : 58.9 KiB (0%)
Language : French
Default : No
Forced : No

Menu
00:00:00.000 : en:Main Title
00:07:27.447 : en:Madonna / No Tipping
00:09:38.495 : en:"Are You a Doctor?"
00:11:08.793 : en:Waiting for Joe
00:15:09.450 : en:"We Got Set Up!"
00:18:54.842 : en:Who Did What and When
00:21:31.040 : enrking with Rats and Psychos
00:26:27.127 : en:Mr. White / the Job
00:28:12.649 : en:Mr White Feels Guilty
00:32:57.684 : en:"Trigger-Happy Madman"
00:37:43.261 : en:Mr. Blonde / Getting Around Parole
00:45:29.727 : en:Eddie Has Some Questions
00:52:32.483 : en:In a Cop's Ear
01:00:15.070 : enead Man Talking
01:03:46.072 : en:Mr. Orange / Making Friends
01:06:31.279 : en:The Commode Story
01:14:20.956 : en:Eddie and Lady E
01:19:42.444 : en:Colour Co-Ordination
01:22:51.091 : en:The Layout
01:24:36.863 : en:An Orange-White Getaway
01:27:00.549 : en:Showdown Among Pros
01:35:15.710 : en:End Credits

为了更好体验下载、推荐使用qBittorrent、uTorrent、BitComet等下载软件,有条件的推荐115或会员下载软件!

下载地址:

游客,如果您要查看本帖隐藏内容请回复

游客,如果您要查看本帖隐藏内容请回复

游客,如果您要查看本帖隐藏内容请回复





上一篇:野蛮人[简繁粤中字] / Barbarian (2022) 4K高清版本下载
下一篇:路易斯·阿姆斯特朗的黑人形象与蓝调音乐(2022)4K高清版本
回复

使用道具 举报

57

主题

1585

帖子

4605

积分

4K家园VIP

Rank: 9Rank: 9Rank: 9

积分
4605
发表于 2022-10-28 10:34:49 | 显示全部楼层
顶顶更健康
回复 支持 反对

使用道具 举报

0

主题

1652

帖子

4537

积分

4K家园VIP

Rank: 9Rank: 9Rank: 9

积分
4537
发表于 2022-10-28 11:17:10 | 显示全部楼层
专业抢沙发的!哈哈
回复 支持 反对

使用道具 举报

主题

帖子

0

积分

新手上路

Rank: 1

积分
0
发表于 2022-10-28 11:42:07 | 显示全部楼层
感谢楼主分享!
回复 支持 反对

使用道具 举报

主题

帖子

25

积分

4K家园VIP

Rank: 9Rank: 9Rank: 9

积分
25
发表于 2022-10-28 17:17:46 | 显示全部楼层
不错的分享,谢谢,
回复 支持 反对

使用道具 举报

5

主题

1526

帖子

4410

积分

4K家园VIP

Rank: 9Rank: 9Rank: 9

积分
4410
发表于 2022-10-28 18:23:17 | 显示全部楼层
围观 围观 沙发在哪里!!!
回复 支持 反对

使用道具 举报

主题

帖子

0

积分

新手上路

Rank: 1

积分
0
发表于 2022-10-28 21:00:32 | 显示全部楼层
开心 开心
回复

使用道具 举报

头像被屏蔽

主题

帖子

1017

积分

禁止访问

积分
1017
发表于 2022-10-30 13:07:43 | 显示全部楼层
提示: 作者被禁止或删除 内容自动屏蔽
回复

使用道具 举报

81

主题

1621

帖子

4709

积分

4K家园VIP

Rank: 9Rank: 9Rank: 9

积分
4709
发表于 2022-10-30 15:43:26 | 显示全部楼层
大人,此事必有蹊跷!
回复 支持 反对

使用道具 举报

53

主题

1586

帖子

4598

积分

4K家园VIP

Rank: 9Rank: 9Rank: 9

积分
4598
发表于 2022-10-30 19:22:49 | 显示全部楼层
支持下楼主,顶一个
回复 支持 反对

使用道具 举报

您需要登录后才可以回帖 登录 | 立即注册

本版积分规则

精彩图文
Archiver|手机版|TAG|Sitemap|新帖|专题|联系我们:邮箱: 4kjia.com@gmail.com   

4k家园   ©2019