[4K电影] 路易斯·阿姆斯特朗的黑人形象与蓝调音乐(2022)4K高清版本

[复制链接]

主题

帖子

0

积分

超级版主

Rank: 8Rank: 8

积分
0
 楼主| 发表于 2022-10-28 20:14:44 | 显示全部楼层 |阅读模式
本帖最后由 最爱4K哟 于 2022-10-28 21:13 编辑

QQ图片20221028210805_副本.png

◎标  题 路易斯·阿姆斯特朗的黑人形象与蓝调音乐
◎译  名 Black & Blues: The Colorful Ballad of Louis Armstrong
◎片  名 Louis Armstrong's Black & Blues
◎年  代 2022
◎产  地 美国
◎类  别 纪录片 / 音乐
◎语  言 英语
◎上映日期 2022-09-08(多伦多电影节) / 2022-10-28(美国网络)
◎IMDb评分 8.4/10 from 26 users Updated : 2022-10-28
◎IMDb链接 https://www.imdb.com/title/tt14447458/
◎豆瓣评分 0/10 from 0 users
◎豆瓣链接 https://movie.douban.com/subject/35437724/
◎片  长 104分钟
◎导  演 萨沙·詹金斯 Sacha Jenkins
◎演  员 路易斯·阿姆斯特朗 Louis Armstrong
       萨拉·伯恩斯坦 Sara Bernstein
       贾斯汀·威尔克斯 Justin Wilkes
       朱莉·安德森 Julie Anderson
       布莱恩·格雷泽 Brian Grazer
       朗·霍华德 Ron Howard


◎简  介


  《路易斯·阿姆斯特朗的黑色与蓝色》通过档案镜头和从未听过的家庭录音和个人对话,向这位改变世界的音乐家展现了亲密而富有启发性的一面。这部权威纪录片由萨查·詹金斯执导,旨在纪念阿姆斯特朗作为爵士乐之父、第一位国际知名和受人喜爱的明星之一以及美国文化大使所留下的遗产。这部电影展示了阿姆斯特朗自己的一生是如何从内战过渡到民权运动的,以及他是如何在那个动荡的时代成为一个避雷针人物的。

Video
ID : 1
Format : HEVC
Format/Info : High Efficiency Video Coding
Format profile : Main 10@L5@High
HDR format : SMPTE ST 2094 App 4, Version 1, HDR10+ Profile B compatible
Codec ID : V_MPEGH/ISO/HEVC
Duration : 1 h 46 min
Bit rate : 23.9 Mb/s
Width : 3 840 pixels
Height : 2 160 pixels
Display aspect ratio : 16:9
Frame rate mode : Constant
Frame rate : 23.976 FPS
Color space : YUV
Chroma subsampling : 4:2:0 (Type 2)
Bit depth : 10 bits
Bits/(Pixel*Frame) : 0.120
Stream size : 17.8 GiB (97%)
Language : English
Default : Yes
Forced : No
Color range : Limited
Color primaries : BT.2020
Transfer characteristics : PQ
Matrix coefficients : BT.2020 non-constant
Mastering display color primaries : Display P3
Mastering display luminance : min: 0.0050 cd/m2, max: 1000 cd/m2
Maximum Content Light Level : 1424 cd/m2
Maximum Frame-Average Light Level : 79 cd/m2

Audio
ID : 2
Format : E-AC-3 JOC
Format/Info : Enhanced AC-3 with Joint Object Coding
Commercial name : Dolby Digital Plus with Dolby Atmos
Codec ID : A_EAC3
Duration : 1 h 46 min
Bit rate mode : Constant
Bit rate : 768 kb/s
Channel(s) : 6 channels
Channel layout : L R C LFE Ls Rs
Sampling rate : 48.0 kHz
Frame rate : 31.250 FPS (1536 SPF)
Compression mode : Lossy
Stream size : 584 MiB (3%)
Language : English
Service kind : Complete Main
Default : Yes
Forced : No
Complexity index : 16
Number of dynamic objects : 15
Bed channel count : 1 channel
Bed channel configuration : LFE

Text #1
ID : 3
Format : UTF-8
Codec ID : S_TEXT/UTF8
Codec ID/Info : UTF-8 Plain Text
Duration : 1 h 29 min
Bit rate : 8 b/s
Frame rate : 0.024 FPS
Count of elements : 131
Stream size : 5.63 KiB (0%)
Title : English (forced)
Language : English
Default : Yes
Forced : Yes

Text #2
ID : 4
Format : UTF-8
Codec ID : S_TEXT/UTF8
Codec ID/Info : UTF-8 Plain Text
Duration : 1 h 43 min
Bit rate : 95 b/s
Frame rate : 0.274 FPS
Count of elements : 1701
Stream size : 72.1 KiB (0%)
Title : English
Language : English
Default : No
Forced : No

Text #3
ID : 5
Format : UTF-8
Codec ID : S_TEXT/UTF8
Codec ID/Info : UTF-8 Plain Text
Duration : 1 h 43 min
Bit rate : 107 b/s
Frame rate : 0.290 FPS
Count of elements : 1804
Stream size : 81.3 KiB (0%)
Title : English (SDH)
Language : English
Default : No
Forced : No

Text #4
ID : 6
Format : UTF-8
Codec ID : S_TEXT/UTF8
Codec ID/Info : UTF-8 Plain Text
Duration : 1 h 45 min
Bit rate : 137 b/s
Frame rate : 0.295 FPS
Count of elements : 1875
Stream size : 106 KiB (0%)
Title : العربية
Language : Arabic
Default : No
Forced : No

Text #5
ID : 7
Format : UTF-8
Codec ID : S_TEXT/UTF8
Codec ID/Info : UTF-8 Plain Text
Duration : 1 h 45 min
Bit rate : 133 b/s
Frame rate : 0.236 FPS
Count of elements : 1496
Stream size : 104 KiB (0%)
Title : български
Language : Bulgarian
Default : No
Forced : No

Text #6
ID : 8
Format : UTF-8
Codec ID : S_TEXT/UTF8
Codec ID/Info : UTF-8 Plain Text
Duration : 1 h 45 min
Bit rate : 83 b/s
Frame rate : 0.254 FPS
Count of elements : 1610
Stream size : 64.6 KiB (0%)
Title : Čeština
Language : Czech
Default : No
Forced : No

Text #7
ID : 9
Format : UTF-8
Codec ID : S_TEXT/UTF8
Codec ID/Info : UTF-8 Plain Text
Duration : 1 h 45 min
Bit rate : 83 b/s
Frame rate : 0.227 FPS
Count of elements : 1438
Stream size : 64.5 KiB (0%)
Title : dansk
Language : Danish
Default : No
Forced : No

Text #8
ID : 10
Format : UTF-8
Codec ID : S_TEXT/UTF8
Codec ID/Info : UTF-8 Plain Text
Duration : 1 h 45 min
Bit rate : 82 b/s
Frame rate : 0.266 FPS
Count of elements : 1687
Stream size : 64.1 KiB (0%)
Title : Deutsch
Language : German
Default : No
Forced : No

Text #9
ID : 11
Format : UTF-8
Codec ID : S_TEXT/UTF8
Codec ID/Info : UTF-8 Plain Text
Duration : 1 h 45 min
Bit rate : 160 b/s
Frame rate : 0.271 FPS
Count of elements : 1720
Stream size : 124 KiB (0%)
Title : Ελληνικά
Language : Greek
Default : No
Forced : No

Text #10
ID : 12
Format : UTF-8
Codec ID : S_TEXT/UTF8
Codec ID/Info : UTF-8 Plain Text
Duration : 1 h 43 min
Bit rate : 116 b/s
Frame rate : 0.276 FPS
Count of elements : 1718
Stream size : 88.1 KiB (0%)
Title : English (CC)
Language : English
Default : No
Forced : No

Text #11
ID : 13
Format : UTF-8
Codec ID : S_TEXT/UTF8
Codec ID/Info : UTF-8 Plain Text
Duration : 1 h 45 min
Bit rate : 85 b/s
Frame rate : 0.257 FPS
Count of elements : 1634
Stream size : 66.0 KiB (0%)
Title : Español (Latinoamérica)
Language : Spanish
Default : No
Forced : No

Text #12
ID : 14
Format : UTF-8
Codec ID : S_TEXT/UTF8
Codec ID/Info : UTF-8 Plain Text
Duration : 1 h 45 min
Bit rate : 86 b/s
Frame rate : 0.285 FPS
Count of elements : 1806
Stream size : 66.9 KiB (0%)
Title : Español (España)
Language : Spanish
Default : No
Forced : No

Text #13
ID : 15
Format : UTF-8
Codec ID : S_TEXT/UTF8
Codec ID/Info : UTF-8 Plain Text
Duration : 1 h 45 min
Bit rate : 84 b/s
Frame rate : 0.268 FPS
Count of elements : 1700
Stream size : 65.1 KiB (0%)
Title : eesti
Language : Estonian
Default : No
Forced : No

Text #14
ID : 16
Format : UTF-8
Codec ID : S_TEXT/UTF8
Codec ID/Info : UTF-8 Plain Text
Duration : 1 h 45 min
Bit rate : 82 b/s
Frame rate : 0.283 FPS
Count of elements : 1795
Stream size : 64.0 KiB (0%)
Title : Suomi
Language : Finnish
Default : No
Forced : No

Text #15
ID : 17
Format : UTF-8
Codec ID : S_TEXT/UTF8
Codec ID/Info : UTF-8 Plain Text
Duration : 1 h 45 min
Bit rate : 82 b/s
Frame rate : 0.291 FPS
Count of elements : 1848
Stream size : 64.3 KiB (0%)
Title : Français (France)
Language : French
Default : No
Forced : No

Text #16
ID : 18
Format : UTF-8
Codec ID : S_TEXT/UTF8
Codec ID/Info : UTF-8 Plain Text
Duration : 1 h 45 min
Bit rate : 83 b/s
Frame rate : 0.291 FPS
Count of elements : 1849
Stream size : 64.3 KiB (0%)
Title : Français (Canada)
Language : French
Default : No
Forced : No

Text #17
ID : 19
Format : UTF-8
Codec ID : S_TEXT/UTF8
Codec ID/Info : UTF-8 Plain Text
Duration : 1 h 45 min
Bit rate : 125 b/s
Frame rate : 0.298 FPS
Count of elements : 1892
Stream size : 97.3 KiB (0%)
Title : עברית
Language : Hebrew
Default : No
Forced : No

Text #18
ID : 20
Format : UTF-8
Codec ID : S_TEXT/UTF8
Codec ID/Info : UTF-8 Plain Text
Duration : 1 h 45 min
Bit rate : 241 b/s
Frame rate : 0.298 FPS
Count of elements : 1892
Stream size : 187 KiB (0%)
Title : हिन्दी
Language : Hindi
Default : No
Forced : No

Text #19
ID : 21
Format : UTF-8
Codec ID : S_TEXT/UTF8
Codec ID/Info : UTF-8 Plain Text
Duration : 1 h 45 min
Bit rate : 98 b/s
Frame rate : 0.294 FPS
Count of elements : 1863
Stream size : 76.6 KiB (0%)
Title : magyar
Language : Hungarian
Default : No
Forced : No

Text #20
ID : 22
Format : UTF-8
Codec ID : S_TEXT/UTF8
Codec ID/Info : UTF-8 Plain Text
Duration : 1 h 45 min
Bit rate : 96 b/s
Frame rate : 0.294 FPS
Count of elements : 1867
Stream size : 74.7 KiB (0%)
Title : Bahasa Indonesia
Language : Indonesian
Default : No
Forced : No

Text #21
ID : 23
Format : UTF-8
Codec ID : S_TEXT/UTF8
Codec ID/Info : UTF-8 Plain Text
Duration : 1 h 45 min
Bit rate : 86 b/s
Frame rate : 0.280 FPS
Count of elements : 1776
Stream size : 66.8 KiB (0%)
Title : Italiano
Language : Italian
Default : No
Forced : No

Text #22
ID : 24
Format : UTF-8
Codec ID : S_TEXT/UTF8
Codec ID/Info : UTF-8 Plain Text
Duration : 1 h 45 min
Bit rate : 94 b/s
Frame rate : 0.282 FPS
Count of elements : 1789
Stream size : 73.0 KiB (0%)
Title : 日本語
Language : Japanese
Default : No
Forced : No

Text #23
ID : 25
Format : UTF-8
Codec ID : S_TEXT/UTF8
Codec ID/Info : UTF-8 Plain Text
Duration : 1 h 45 min
Bit rate : 107 b/s
Frame rate : 0.298 FPS
Count of elements : 1894
Stream size : 83.5 KiB (0%)
Title : 한국어
Language : Korean
Default : No
Forced : No

Text #24
ID : 26
Format : UTF-8
Codec ID : S_TEXT/UTF8
Codec ID/Info : UTF-8 Plain Text
Duration : 1 h 45 min
Bit rate : 86 b/s
Frame rate : 0.289 FPS
Count of elements : 1831
Stream size : 66.8 KiB (0%)
Title : lietuvių
Language : Lithuanian
Default : No
Forced : No

Text #25
ID : 27
Format : UTF-8
Codec ID : S_TEXT/UTF8
Codec ID/Info : UTF-8 Plain Text
Duration : 1 h 45 min
Bit rate : 97 b/s
Frame rate : 0.276 FPS
Count of elements : 1754
Stream size : 75.8 KiB (0%)
Title : latviešu
Language : Latvian
Default : No
Forced : No

Text #26
ID : 28
Format : UTF-8
Codec ID : S_TEXT/UTF8
Codec ID/Info : UTF-8 Plain Text
Duration : 1 h 45 min
Bit rate : 94 b/s
Frame rate : 0.293 FPS
Count of elements : 1861
Stream size : 72.9 KiB (0%)
Title : Bahasa Melayu
Language : Malay
Default : No
Forced : No

Text #27
ID : 29
Format : UTF-8
Codec ID : S_TEXT/UTF8
Codec ID/Info : UTF-8 Plain Text
Duration : 1 h 45 min
Bit rate : 79 b/s
Frame rate : 0.231 FPS
Count of elements : 1468
Stream size : 61.5 KiB (0%)
Title : Nederlands
Language : Dutch
Default : No
Forced : No

Text #28
ID : 30
Format : UTF-8
Codec ID : S_TEXT/UTF8
Codec ID/Info : UTF-8 Plain Text
Duration : 1 h 45 min
Bit rate : 76 b/s
Frame rate : 0.225 FPS
Count of elements : 1427
Stream size : 59.0 KiB (0%)
Title : norsk
Language : Norwegian
Default : No
Forced : No

Text #29
ID : 31
Format : UTF-8
Codec ID : S_TEXT/UTF8
Codec ID/Info : UTF-8 Plain Text
Duration : 1 h 45 min
Bit rate : 81 b/s
Frame rate : 0.263 FPS
Count of elements : 1672
Stream size : 63.1 KiB (0%)
Title : polski
Language : Polish
Default : No
Forced : No

Text #30
ID : 32
Format : UTF-8
Codec ID : S_TEXT/UTF8
Codec ID/Info : UTF-8 Plain Text
Duration : 1 h 45 min
Bit rate : 86 b/s
Frame rate : 0.283 FPS
Count of elements : 1793
Stream size : 66.9 KiB (0%)
Title : Português (Brasil)
Language : Portuguese
Default : No
Forced : No

Text #31
ID : 33
Format : UTF-8
Codec ID : S_TEXT/UTF8
Codec ID/Info : UTF-8 Plain Text
Duration : 1 h 45 min
Bit rate : 91 b/s
Frame rate : 0.293 FPS
Count of elements : 1860
Stream size : 70.7 KiB (0%)
Title : Português
Language : Portuguese
Default : No
Forced : No

Text #32
ID : 34
Format : UTF-8
Codec ID : S_TEXT/UTF8
Codec ID/Info : UTF-8 Plain Text
Duration : 1 h 45 min
Bit rate : 153 b/s
Frame rate : 0.298 FPS
Count of elements : 1891
Stream size : 119 KiB (0%)
Title : Русский
Language : Russian
Default : No
Forced : No

Text #33
ID : 35
Format : UTF-8
Codec ID : S_TEXT/UTF8
Codec ID/Info : UTF-8 Plain Text
Duration : 1 h 45 min
Bit rate : 79 b/s
Frame rate : 0.286 FPS
Count of elements : 1818
Stream size : 61.2 KiB (0%)
Title : Slovenčina
Language : Slovak
Default : No
Forced : No

Text #34
ID : 36
Format : UTF-8
Codec ID : S_TEXT/UTF8
Codec ID/Info : UTF-8 Plain Text
Duration : 1 h 45 min
Bit rate : 73 b/s
Frame rate : 0.243 FPS
Count of elements : 1544
Stream size : 57.3 KiB (0%)
Title : slovenščina
Language : Slovenian
Default : No
Forced : No

Text #35
ID : 37
Format : UTF-8
Codec ID : S_TEXT/UTF8
Codec ID/Info : UTF-8 Plain Text
Duration : 1 h 45 min
Bit rate : 88 b/s
Frame rate : 0.247 FPS
Count of elements : 1569
Stream size : 68.3 KiB (0%)
Title : Svenska
Language : Swedish
Default : No
Forced : No

Text #36
ID : 38
Format : UTF-8
Codec ID : S_TEXT/UTF8
Codec ID/Info : UTF-8 Plain Text
Duration : 1 h 45 min
Bit rate : 312 b/s
Frame rate : 0.298 FPS
Count of elements : 1891
Stream size : 242 KiB (0%)
Title : தமிழ்
Language : Tamil
Default : No
Forced : No

Text #37
ID : 39
Format : UTF-8
Codec ID : S_TEXT/UTF8
Codec ID/Info : UTF-8 Plain Text
Duration : 1 h 45 min
Bit rate : 241 b/s
Frame rate : 0.298 FPS
Count of elements : 1892
Stream size : 187 KiB (0%)
Title : తెలుగు
Language : Telugu
Default : No
Forced : No

Text #38
ID : 40
Format : UTF-8
Codec ID : S_TEXT/UTF8
Codec ID/Info : UTF-8 Plain Text
Duration : 1 h 45 min
Bit rate : 216 b/s
Frame rate : 0.298 FPS
Count of elements : 1893
Stream size : 167 KiB (0%)
Title : ไทย
Language : Thai
Default : No
Forced : No

Text #39
ID : 41
Format : UTF-8
Codec ID : S_TEXT/UTF8
Codec ID/Info : UTF-8 Plain Text
Duration : 1 h 45 min
Bit rate : 94 b/s
Frame rate : 0.277 FPS
Count of elements : 1760
Stream size : 73.2 KiB (0%)
Title : Türkçe
Language : Turkish
Default : No
Forced : No

Text #40
ID : 42
Format : UTF-8
Codec ID : S_TEXT/UTF8
Codec ID/Info : UTF-8 Plain Text
Duration : 1 h 45 min
Bit rate : 152 b/s
Frame rate : 0.297 FPS
Count of elements : 1888
Stream size : 118 KiB (0%)
Title : українська
Language : Ukrainian
Default : No
Forced : No

Text #41
ID : 43
Format : UTF-8
Codec ID : S_TEXT/UTF8
Codec ID/Info : UTF-8 Plain Text
Duration : 1 h 45 min
Bit rate : 111 b/s
Frame rate : 0.289 FPS
Count of elements : 1833
Stream size : 86.2 KiB (0%)
Title : Tiếng Việt
Language : Vietnamese
Default : No
Forced : No

Text #42
ID : 44
Format : UTF-8
Codec ID : S_TEXT/UTF8
Codec ID/Info : UTF-8 Plain Text
Duration : 1 h 45 min
Bit rate : 86 b/s
Frame rate : 0.298 FPS
Count of elements : 1894
Stream size : 66.8 KiB (0%)
Title : 廣東話
Language : Chinese
Default : No
Forced : No

Text #43
ID : 45
Format : UTF-8
Codec ID : S_TEXT/UTF8
Codec ID/Info : UTF-8 Plain Text
Duration : 1 h 45 min
Bit rate : 90 b/s
Frame rate : 0.298 FPS
Count of elements : 1893
Stream size : 70.4 KiB (0%)
Title : 中文(简体)
Language : Chinese
Default : No
Forced : No

Text #44
ID : 46
Format : UTF-8
Codec ID : S_TEXT/UTF8
Codec ID/Info : UTF-8 Plain Text
Duration : 1 h 45 min
Bit rate : 93 b/s
Frame rate : 0.298 FPS
Count of elements : 1894
Stream size : 72.1 KiB (0%)
Title : 中文(繁體)
Language : Chinese
Default : No
Forced : No

为了更好体验下载、推荐使用qBittorrent、uTorrent、BitComet等下载软件,有条件的推荐115或会员下载软件!

下载地址:(以下全部为简繁粤中字版本)

游客,如果您要查看本帖隐藏内容请回复

游客,如果您要查看本帖隐藏内容请回复

游客,如果您要查看本帖隐藏内容请回复

游客,如果您要查看本帖隐藏内容请回复






上一篇:落水狗 / Reservoir Dogs (1992) 4K高清版本下载
下一篇:亲爱的快逃[简繁中字] / Run Sweetheart Run (2020) 4K高清版本下载
回复

使用道具 举报

46

主题

1524

帖子

4408

积分

4K家园VIP

Rank: 9Rank: 9Rank: 9

积分
4408
发表于 2022-10-28 20:14:47 | 显示全部楼层
我只是路过,不发表意见
回复 支持 反对

使用道具 举报

0

主题

1770

帖子

4914

积分

4K家园VIP

Rank: 9Rank: 9Rank: 9

积分
4914
发表于 2022-10-28 20:14:47 | 显示全部楼层
路过 帮顶 嘿嘿
回复 支持 反对

使用道具 举报

1

主题

1671

帖子

4587

积分

4K家园VIP

Rank: 9Rank: 9Rank: 9

积分
4587
发表于 2022-10-28 21:33:08 | 显示全部楼层
有4K版卡,下个看下
回复 支持 反对

使用道具 举报

3

主题

1674

帖子

4667

积分

4K家园VIP

Rank: 9Rank: 9Rank: 9

积分
4667
发表于 2022-10-30 00:01:29 | 显示全部楼层
学习下
回复 支持 反对

使用道具 举报

41

主题

1569

帖子

4539

积分

4K家园VIP

Rank: 9Rank: 9Rank: 9

积分
4539
发表于 2022-10-30 02:55:22 | 显示全部楼层
楼猪V5啊
回复 支持 反对

使用道具 举报

主题

帖子

18

积分

新手上路

Rank: 1

积分
18
发表于 2022-10-30 07:54:03 | 显示全部楼层
感谢分享
回复

使用道具 举报

主题

帖子

0

积分

4K家园VIP

Rank: 9Rank: 9Rank: 9

积分
0
发表于 2022-10-30 09:21:30 | 显示全部楼层
太好啦&萬分感謝版主的無私發佈分享%
回复 支持 反对

使用道具 举报

头像被屏蔽

主题

帖子

1017

积分

禁止访问

积分
1017
发表于 2022-11-1 10:34:10 | 显示全部楼层
提示: 作者被禁止或删除 内容自动屏蔽
回复

使用道具 举报

头像被屏蔽

主题

帖子

1017

积分

禁止访问

积分
1017
发表于 2022-11-4 13:43:48 | 显示全部楼层
提示: 作者被禁止或删除 内容自动屏蔽
回复

使用道具 举报

您需要登录后才可以回帖 登录 | 立即注册

本版积分规则

精彩图文
Archiver|手机版|TAG|Sitemap|新帖|专题|联系我们:邮箱: 4kjia.com@gmail.com   

4k家园   ©2019