[4K电影] 岛上书店 / The Storied Life of A.J. Fikry (2021) 4K高清版本下载

[复制链接]

主题

帖子

0

积分

超级版主

Rank: 8Rank: 8

积分
0
 楼主| 发表于 2022-10-30 13:13:29 | 显示全部楼层 |阅读模式

QQ图片20221030130708_副本.png

◎标  题 岛上书店
◎片  名 The Storied Life of A.J. Fikry
◎年  代 2021
◎产  地 美国
◎类  别 喜剧
◎语  言 英语
◎IMDb评分 6.6/10 from 170 users 更新 : 2022-10-30
◎IMDb链接 https://www.imdb.com/title/tt10643926/
◎豆瓣评分 0/10 from 0 users
◎豆瓣链接 https://movie.douban.com/subject/35661758/
◎导  演 汉斯·卡诺萨 Hans Canosa
◎编  剧 加布瑞埃拉·泽文 Gabrielle Zevin
◎演  员 克里斯蒂娜·亨德里克斯 Christina Hendricks
       露西·海尔 Lucy Hale
       昆瑙·内亚 Kunal Nayyar
       大卫·阿奎特 David Arquette


◎简  介


  A、 J.Fikry的妻子去世了,他的书店陷入了困境,现在他珍藏的爱伦·坡诗歌珍本被盗。但当一个神秘的包裹出现时,它的到来让他有机会重新开始生活,重新看待事物。纽约时报畅销书。

Video
ID : 1
Format : HEVC
Format/Info : High Efficiency Video Coding
Format profile : Main 10@L5@High
Codec ID : V_MPEGH/ISO/HEVC
Duration : 1 h 45 min
Bit rate : 11.8 Mb/s
Width : 3 832 pixels
Height : 2 064 pixels
Display aspect ratio : 1.85:1
Frame rate mode : Constant
Frame rate : 23.976 FPS
Color space : YUV
Chroma subsampling : 4:2:0
Bit depth : 10 bits
Bits/(Pixel*Frame) : 0.062
Stream size : 8.66 GiB (97%)
Default : Yes
Forced : No
Color range : Limited
Color primaries : BT.709
Transfer characteristics : BT.709
Matrix coefficients : BT.709

Audio
ID : 2
Format : AC-3
Format/Info : Audio Coding 3
Commercial name : Dolby Digital
Codec ID : A_AC3
Duration : 1 h 45 min
Bit rate mode : Constant
Bit rate : 384 kb/s
Channel(s) : 6 channels
Channel layout : L R C LFE Ls Rs
Sampling rate : 48.0 kHz
Frame rate : 31.250 FPS (1536 SPF)
Compression mode : Lossy
Stream size : 289 MiB (3%)
Language : English
Service kind : Complete Main
Default : Yes
Forced : No

Text #1
ID : 3
Format : UTF-8
Codec ID : S_TEXT/UTF8
Codec ID/Info : UTF-8 Plain Text
Duration : 1 h 39 min
Bit rate : 70 b/s
Frame rate : 0.283 FPS
Count of elements : 1696
Stream size : 51.3 KiB (0%)
Language : English
Default : Yes
Forced : No

Text #2
ID : 4
Format : UTF-8
Codec ID : S_TEXT/UTF8
Codec ID/Info : UTF-8 Plain Text
Duration : 1 h 40 min
Bit rate : 73 b/s
Frame rate : 0.307 FPS
Count of elements : 1856
Stream size : 54.3 KiB (0%)
Title : SDH
Language : English
Default : No
Forced : No


为了更好体验下载、推荐使用qBittorrent、uTorrent、BitComet等下载软件,有条件的推荐115或会员下载软件!

下载地址:


游客,如果您要查看本帖隐藏内容请回复




上一篇:亲爱的快逃[简繁中字] / Run Sweetheart Run (2020) 4K高清版本下载
下一篇:养鬼吃人 / Hellraiser (2022) 4K高清版本下载
回复

使用道具 举报

81

主题

1621

帖子

4709

积分

4K家园VIP

Rank: 9Rank: 9Rank: 9

积分
4709
发表于 2022-10-30 13:13:34 | 显示全部楼层
试试看吧
回复 支持 反对

使用道具 举报

2

主题

1475

帖子

4245

积分

4K家园VIP

Rank: 9Rank: 9Rank: 9

积分
4245
发表于 2022-10-30 13:13:34 来自手机 | 显示全部楼层
1v1飘过
回复 支持 反对

使用道具 举报

主题

帖子

0

积分

新手上路

Rank: 1

积分
0
发表于 2022-10-30 14:42:24 | 显示全部楼层
谢谢楼主分享
回复 支持 反对

使用道具 举报

主题

帖子

9

积分

新手上路

Rank: 1

积分
9
发表于 2022-10-30 19:49:43 | 显示全部楼层
感谢分享
回复

使用道具 举报

3

主题

1388

帖子

4182

积分

4K家园VIP

Rank: 9Rank: 9Rank: 9

积分
4182
发表于 2022-10-31 05:20:31 | 显示全部楼层
我也是坐沙发的
回复 支持 反对

使用道具 举报

0

主题

1431

帖子

4127

积分

中级会员

Rank: 4

积分
4127
发表于 2022-10-31 23:26:14 | 显示全部楼层
怎么这么大,希望我电视能看啊
回复 支持 反对

使用道具 举报

主题

帖子

12

积分

新手上路

Rank: 1

积分
12
发表于 2022-10-31 23:37:37 | 显示全部楼层
感谢楼主分享
回复 支持 反对

使用道具 举报

53

主题

1555

帖子

4532

积分

4K家园VIP

Rank: 9Rank: 9Rank: 9

积分
4532
发表于 2022-11-1 14:39:02 来自手机 | 显示全部楼层
无论是不是沙发都得回复下
回复 支持 反对

使用道具 举报

您需要登录后才可以回帖 登录 | 立即注册

本版积分规则

精彩图文
Archiver|手机版|TAG|Sitemap|新帖|专题|联系我们:邮箱: 4kjia.com@gmail.com   

4k家园   ©2019