[4K电影] 养鬼吃人 / Hellraiser (2022) 4K高清版本下载

[复制链接]

主题

帖子

0

积分

超级版主

Rank: 8Rank: 8

积分
0
 楼主| 发表于 2022-10-31 11:32:10 | 显示全部楼层 |阅读模式
213935zv8rhcozjhcj8221.png

◎标  题 养鬼吃人
◎译  名 新养鬼吃人
◎片  名 Hellraiser
◎年  代 2022
◎产  地 美国
◎类  别 悬疑 / 惊悚 / 恐怖
◎语  言 英语
◎上映日期 2022-10-07(美国网络)
◎IMDb评分 6.0/10 from 27213 users 更新 : 2022-10-30
◎IMDb链接 https://www.imdb.com/title/tt0887261/
◎豆瓣评分 5.5/10 from 5382 users 更新 : 2022-10-31
◎豆瓣链接 https://movie.douban.com/subject/2042941/
◎导  演 大卫·布鲁克纳 David Bruckner
◎编  剧 本·柯林斯 Ben Collins / 卢克·皮厄特罗斯基 Luke Piotrowski / 大卫·S·高耶 David S. Goyer / 克莱夫·巴克 Clive Barker / 泰迪·特南鲍姆 Teddy Tenenbaum
◎演  员 杰米·克莱顿 Jamie Clayton
       高兰·维斯耶克 Goran Visnjic
       西娅姆·阿巴斯 Hiam Abbass
       布兰登·弗林 Brandon Flynn
       德鲁·斯塔基 Drew Starkey
       敖德萨·阿德隆 Odessa Adlon
       赛琳娜·露 Selina Lo
       伊芙·海因德 Aoife Hinds
       普里德拉格·比耶拉克 Predrag Bjelac
       亚当·费森 Adam Faison
       尼古拉·肯特 Nikola Kent
       伊沃娜·库斯图迪奇 Ivona Kustudic
       凯蒂·戈伊科维奇 Katarina Gojkovic
       Miodrag Milovanov Miodrag Milovanov
       克莱夫·巴克 Clive Barker
       大卫·S·高耶 David S. Goyer
       莫米尔卡·拜洛维奇 Momirka Bailovic

◎简  介


  经典恐怖片《养鬼吃人/猛鬼追魂》将拍新版电影,近日定下导演:大卫·布鲁克纳(《黑森灵》《鬼作秀》)。
原版讲述男子Frank不慎打开了另一个次元,被著名恶鬼“针头鬼”带领的魔鬼Cenobites所杀。而多年后,Frank的哥哥Larry带着妻子Julia,搬到了他已故的妈妈的老宅中,因为一次意外,Larry的血让Frank的尸体重生,也让恶鬼降临……后成了一个系列。新版将从系列第一部开始重启,据称将在忠于原版的基础上有进化。
Spyglass媒体公司打造。Ben Collins和Luke Piotrowski编剧,大卫·S·高耶(《蝙蝠侠:黑暗骑士三部曲》《刀锋战士》)提供故事并参与制片,这个导演、编剧、制片组合也就是今年圣丹斯电影节的热门恐怖片《鬼屋》的班底。

Video
ID : 1
Format : HEVC
Format/Info : High Efficiency Video Coding
Format profile : Main 10@L5@High
HDR format : SMPTE ST 2094 App 4, Version 1, HDR10+ Profile B compatible
Codec ID : V_MPEGH/ISO/HEVC
Duration : 2 h 0 min
Bit rate : 23.9 Mb/s
Width : 3 840 pixels
Height : 1 636 pixels
Display aspect ratio : 2.35:1
Frame rate mode : Constant
Frame rate : 23.976 (24000/1001) FPS
Color space : YUV
Chroma subsampling : 4:2:0 (Type 2)
Bit depth : 10 bits
Bits/(Pixel*Frame) : 0.158
Stream size : 20.2 GiB (95%)
Language : English
Default : Yes
Forced : No
Color range : Limited
Color primaries : BT.2020
Transfer characteristics : PQ
Matrix coefficients : BT.2020 non-constant
Mastering display color primaries : Display P3
Mastering display luminance : min: 0.0050 cd/m2, max: 1000 cd/m2
Maximum Content Light Level : 1234 cd/m2
Maximum Frame-Average Light Level : 975 cd/m2

Audio
ID : 2
Format : E-AC-3 JOC
Format/Info : Enhanced AC-3 with Joint Object Coding
Commercial name : Dolby Digital Plus with Dolby Atmos
Codec ID : A_EAC3
Duration : 2 h 0 min
Bit rate mode : Constant
Bit rate : 768 kb/s
Channel(s) : 6 channels
Channel layout : L R C LFE Ls Rs
Sampling rate : 48.0 kHz
Frame rate : 31.250 FPS (1536 SPF)
Compression mode : Lossy
Stream size : 664 MiB (3%)
Language : English
Service kind : Complete Main
Default : Yes
Forced : No
Complexity index : 16
Number of dynamic objects : 15
Bed channel count : 1 channel
Bed channel configuration : LFE

Text
ID : 3
Format : UTF-8
Codec ID : S_TEXT/UTF8
Codec ID/Info : UTF-8 Plain Text
Title : English
Language : English
Default : No
Forced : No


为了更好体验下载、推荐使用qBittorrent、uTorrent、BitComet等下载软件,有条件的推荐115或会员下载软件!

下载地址:

游客,如果您要查看本帖隐藏内容请回复

游客,如果您要查看本帖隐藏内容请回复

游客,如果您要查看本帖隐藏内容请回复


相关其他4K高清版本链接:养鬼吃人 / Hellraiser (2022) 4K高清版本下载



上一篇:岛上书店 / The Storied Life of A.J. Fikry (2021) 4K高清版本下载
下一篇:吵闹鬼 / Poltergeist (1982) 4K高清版本下载
回复

使用道具 举报

39

主题

1571

帖子

4507

积分

4K家园VIP

Rank: 9Rank: 9Rank: 9

积分
4507
发表于 2022-10-31 11:32:13 | 显示全部楼层
前排顶,很好!
回复 支持 反对

使用道具 举报

主题

帖子

0

积分

4K家园VIP

Rank: 9Rank: 9Rank: 9

积分
0
发表于 2022-10-31 12:04:39 | 显示全部楼层
太好啦&萬分感謝版主的無私發佈分享%
回复 支持 反对

使用道具 举报

主题

帖子

8

积分

新手上路

Rank: 1

积分
8
发表于 2022-10-31 14:25:32 | 显示全部楼层
bbbbrgr.jpg
回复 支持 反对

使用道具 举报

2

主题

1249

帖子

3762

积分

4K家园VIP

Rank: 9Rank: 9Rank: 9

积分
3762
发表于 2022-10-31 16:38:30 来自手机 | 显示全部楼层
看着好像不错
回复 支持 反对

使用道具 举报

主题

帖子

317

积分

新手上路

Rank: 1

积分
317
发表于 2022-10-31 18:51:20 | 显示全部楼层
谢谢分享,辛苦了
回复 支持 反对

使用道具 举报

主题

帖子

10

积分

新手上路

Rank: 1

积分
10
发表于 2022-10-31 23:41:32 | 显示全部楼层
感谢分享
回复

使用道具 举报

51

主题

1568

帖子

4524

积分

4K家园VIP

Rank: 9Rank: 9Rank: 9

积分
4524
发表于 2022-11-1 00:15:27 来自手机 | 显示全部楼层
珍爱生命,果断回帖。
回复 支持 反对

使用道具 举报

3

主题

1766

帖子

4892

积分

4K家园VIP

Rank: 9Rank: 9Rank: 9

积分
4892
发表于 2022-11-1 04:34:28 | 显示全部楼层
前排顶,很好!
回复 支持 反对

使用道具 举报

1

主题

1393

帖子

4207

积分

4K家园VIP

Rank: 9Rank: 9Rank: 9

积分
4207
发表于 2022-11-1 10:40:14 | 显示全部楼层
分享的不错,希望楼主继续分享
回复 支持 反对

使用道具 举报

您需要登录后才可以回帖 登录 | 立即注册

本版积分规则

精彩图文
Archiver|手机版|TAG|Sitemap|新帖|专题|联系我们:邮箱: 4kjia.com@gmail.com   

4k家园   ©2019