[4K电影] 吵闹鬼 / Poltergeist (1982) 4K高清版本下载

[复制链接]

主题

帖子

0

积分

超级版主

Rank: 8Rank: 8

积分
0
 楼主| 发表于 2022-10-31 20:20:44 | 显示全部楼层 |阅读模式
本帖最后由 最爱4K哟 于 2022-10-31 20:28 编辑

QQ图片20221031201330_副本.png

◎译  名 吵闹鬼 / 鬼哭神嚎 / 鬼驱人
◎片  名 Poltergeist
◎年  代 1982
◎产  地 美国
◎类  别 恐怖 / 奇幻
◎语  言 英语
◎上映日期 1982-06-04(美国)
◎IMDb评分 7.3/10 from 164486 users 更新 : 2022-10-29
◎IMDb链接 https://www.imdb.com/title/tt0084516
◎豆瓣评分 6.8/10 from 2242 users 更新 : 2022-10-31
◎豆瓣链接 https://movie.douban.com/subject/1293042/
◎片  长 114 分钟
◎导  演 托比·霍珀 Tobe Hooper / 迈克尔·卡恩 Michael Kahn
◎编  剧 史蒂文·斯皮尔伯格 Steven Spielberg
◎主  演 格雷格·T·尼尔森 Craig T. Nelson
       乔贝兹·威廉姆斯 JoBeth Williams
       比阿特丽斯·斯特雷特 Beatrice Straight
       多米妮克·邓恩 Dominique Dunne
       奥利弗·罗宾斯 Oliver Robins
       赛尔达·鲁宾斯特恩 Zelda Rubinstein
       詹姆斯·凯伦 James Karen
       海瑟·欧罗克 Heather O'Rourke
       Michael McManus
       Virginia Kiser
       理查德·劳森 Richard Lawson
       卢·佩里曼 Lou Perryman
       德克·布罗克 Dirk Blocker
       阿兰·格拉夫 Allan Graf


◎简  介  


  事业有成、意气风发的史蒂文?弗瑞林(Craig T. Nelson 饰)带着妻子戴安(JoBeth Williams 饰)和三个孩子搬进了加利福尼亚某郊外社区。但在入住不久,怪事便频繁发生。先是小女儿卡萝(Heather O'Rourke 饰)梦游,对着自动开启漫屏雪花的电视机自言自语。接着便又不明物体从电视机中飘出,莫名的地震,破碎的玻璃杯……如此种种,搅得弗瑞林一家坐卧不定。过了不久,恐怖事件逐渐升级,卡萝最终竟被拉入电视机中……本片荣获1983年美国科幻恐怖电影节最佳恐怖片、最佳化装和最佳女配角(Zelda Rubinstein)三个奖项;1983年英国电视与电影协会最佳特效奖。

◎获奖情况  

  第55届奥斯卡金像奖(1983)
  最佳视觉效果(提名) 理查德·艾德兰德 / Michael Wood / 布鲁斯·尼科尔森
  最佳音效剪辑(提名) 理查德·路易斯·安德森 / 斯蒂芬·亨特·弗利克
  最佳原创配乐(提名) 杰瑞·高德史密斯

Video
ID : 1
Format : HEVC
Format/Info : High Efficiency Video Coding
Format profile : Main 10@L5@Main
HDR format : Dolby Vision, Version 1.0, dvhe.05.06, BL+RPU
Codec ID : dvhe
Codec ID/Info : High Efficiency Video Coding with Dolby Vision
Duration : 1 h 54 min
Bit rate : 18.0 Mb/s
Width : 3 840 pixels
Height : 2 160 pixels
Display aspect ratio : 16:9
Frame rate mode : Constant
Frame rate : 23.976 (24000/1001) FPS
Color space : YUV
Chroma subsampling : 4:2:0
Bit depth : 10 bits
Bits/(Pixel*Frame) : 0.091
Stream size : 14.4 GiB (98%)
Writing library : x265 3.4hy:[Linux][GCC 7.5.0][64 bit] 10bit
Encoding settings : cpuid=1111039 / frame-threads=6 / no-wpp / no-pmode / no-pme / no-psnr / no-ssim / log-level=2 / input-csp=1 / input-res=3840x2160 / interlace=0 / total-frames=0 / level-idc=0 / high-tier=1 / uhd-bd=0 / ref=4 / no-allow-non-conformance / repeat-headers / annexb / aud / hrd / info / hash=0 / no-temporal-layers / no-open-gop / min-keyint=96 / keyint=96 / gop-lookahead=0 / bframes=4 / b-adapt=2 / b-pyramid / bframe-bias=0 / rc-lookahead=25 / lookahead-slices=4 / scenecut=40 / hist-scenecut=0 / radl=0 / no-splice / no-intra-refresh / ctu=64 / min-cu-size=8 / rect / no-amp / max-tu-size=32 / tu-inter-depth=1 / tu-intra-depth=1 / limit-tu=0 / rdoq-level=2 / dynamic-rd=0.00 / no-ssim-rd / signhide / no-tskip / nr-intra=0 / nr-inter=0 / no-constrained-intra / strong-intra-smoothing / max-merge=3 / limit-refs=3 / limit-modes / me=3 / subme=3 / merange=57 / temporal-mvp / no-frame-dup / no-hme / weightp / no-weightb / no-analyze-src-pics / deblock=0:0 / sao / no-sao-non-deblock / rd=4 / selective-sao=4 / no-early-skip / rskip / no-fast-intra / no-tskip-fast / no-cu-lossless / no-b-intra / no-splitrd-skip / rdpenalty=0 / psy-rd=2.00 / psy-rdoq=1.00 / no-rd-refine / no-lossless / cbqpoffs=0 / crqpoffs=3 / rc=abr / bitrate=18000 / qcomp=0.60 / qpstep=4 / stats-write=0 / stats-read=2 / cplxblur=20.0 / qblur=0.5 / vbv-maxrate=24500 / vbv-bufsize=24500 / vbv-init=0.6 / vbv-end=0.6 / vbv-end-fr-adj=0.0 / ipratio=1.40 / pbratio=1.30 / aq-mode=2 / aq-strength=1.00 / cutree / zone-count=0 / no-strict-cbr / qg-size=32 / no-rc-grain / qpmax=69 / qpmin=0 / no-const-vbv / sar=1 / overscan=0 / videoformat=5 / range=1 / colorprim=2 / transfer=2 / colormatrix=2 / chromaloc=0 / display-window=0 / cll=0,0 / min-luma=0 / max-luma=1023 / log2-max-poc-lsb=8 / vui-timing-info / vui-hrd-info / no-concatenation / slices=1 / no-opt-qp-pps / no-opt-ref-list-length-pps / no-multi-pass-opt-rps / scenecut-bias=0.05 / hist-threshold=0.01 / no-opt-cu-delta-qp / no-aq-motion / no-hdr10 / no-hdr10-opt / no-dhdr10-opt / no-idr-recovery-sei / analysis-reuse-level=0 / analysis-save-reuse-level=0 / analysis-load-reuse-level=0 / scale-factor=0 / refine-intra=0 / refine-inter=0 / refine-mv=1 / refine-ctu-distortion=0 / no-limit-sao / ctu-info=0 / no-lowpass-dct / refine-analysis-type=0 / copy-pic=1 / max-ausize-factor=1.0 / no-dynamic-refine / no-single-sei / no-hevc-aq / no-svt / no-field / qp-adaptation-range=1.00 / no-scenecut-aware-qpconformance-window-offsets / right=0 / bottom=0 / decoder-max-rate=0
Default : Yes
Alternate group : 1
Encoded date : UTC 2022-10-31 08:57:05
Tagged date : UTC 2022-10-31 08:59:33
Color range : Full
Codec configuration box : hvcC+dvcC

Audio
ID : 2
Format : AC-3
Format/Info : Audio Coding 3
Commercial name : Dolby Digital
Codec ID : ac-3
Duration : 1 h 54 min
Bit rate mode : Constant
Bit rate : 384 kb/s
Maximum bit rate : 406 kb/s
Channel(s) : 6 channels
Channel layout : L R C LFE Ls Rs
Sampling rate : 48.0 kHz
Frame rate : 31.250 FPS (1536 SPF)
Compression mode : Lossy
Stream size : 314 MiB (2%)
Title : English
Language : English
Service kind : Complete Main
Default : Yes
Alternate group : 1
Tagged date : UTC 2022-10-31 08:59:33

Text #1
ID : 3
Format : Timed Text
Codec ID : tx3g
Duration : 1 h 48 min
Bit rate mode : Variable
Bit rate : 54 b/s
Frame rate : 0.411 FPS
Stream size : 42.7 KiB (0%)
Title : English
Language : English
Forced : No
Encoded date : UTC 2022-10-31 08:59:33
Tagged date : UTC 2022-10-31 08:59:33

Text #2
ID : 4
Format : Timed Text
Codec ID : tx3g
Duration : 1 h 54 min
Bit rate mode : Variable
Bit rate : 62 b/s
Frame rate : 0.511 FPS
Stream size : 51.8 KiB (0%)
Title : English
Language : English
Forced : No
Encoded date : UTC 2022-10-31 08:59:33
Tagged date : UTC 2022-10-31 08:59:33

Text #3
ID : 5
Format : Timed Text
Codec ID : tx3g
Duration : 1 h 49 min
Bit rate mode : Variable
Bit rate : 45 b/s
Frame rate : 0.341 FPS
Stream size : 36.1 KiB (0%)
Title : Portuguese
Language : Portuguese
Forced : No
Encoded date : UTC 2022-10-31 08:59:33
Tagged date : UTC 2022-10-31 08:59:33

Text #4
ID : 6
Format : Timed Text
Codec ID : tx3g
Duration : 1 h 54 min
Bit rate mode : Variable
Bit rate : 45 b/s
Frame rate : 0.326 FPS
Stream size : 38.0 KiB (0%)
Title : Portuguese-BR
Language : Portuguese
Forced : No
Encoded date : UTC 2022-10-31 08:59:33
Tagged date : UTC 2022-10-31 08:59:33

Text #5
ID : 7
Format : Timed Text
Codec ID : tx3g
Duration : 1 h 54 min
Bit rate mode : Variable
Bit rate : 49 b/s
Frame rate : 0.326 FPS
Stream size : 41.1 KiB (0%)
Title : Spanish
Language : Spanish
Forced : No
Encoded date : UTC 2022-10-31 08:59:33
Tagged date : UTC 2022-10-31 08:59:33

Text #6
ID : 8
Format : Timed Text
Codec ID : tx3g
Duration : 1 h 49 min
Bit rate mode : Variable
Bit rate : 48 b/s
Frame rate : 0.332 FPS
Stream size : 38.0 KiB (0%)
Title : Spanish-EU
Language : Spanish
Forced : No
Encoded date : UTC 2022-10-31 08:59:33
Tagged date : UTC 2022-10-31 08:59:33

为了更好体验下载、推荐使用qBittorrent、uTorrent、BitComet等下载软件,有条件的推荐115或会员下载软件!

下载地址:


游客,如果您要查看本帖隐藏内容请回复

游客,如果您要查看本帖隐藏内容请回复







上一篇:养鬼吃人 / Hellraiser (2022) 4K高清版本下载
下一篇:月光光心慌慌:终结 / Halloween Ends (2022) 4K高清版本下载
回复

使用道具 举报

0

主题

1378

帖子

4146

积分

4K家园VIP

Rank: 9Rank: 9Rank: 9

积分
4146
发表于 2022-10-31 20:20:49 | 显示全部楼层
向楼主学习
回复 支持 反对

使用道具 举报

0

主题

1288

帖子

3878

积分

4K家园VIP

Rank: 9Rank: 9Rank: 9

积分
3878
发表于 2022-10-31 20:49:32 | 显示全部楼层
感谢推荐,确实不错
回复 支持 反对

使用道具 举报

1

主题

1346

帖子

4064

积分

4K家园VIP

Rank: 9Rank: 9Rank: 9

积分
4064
发表于 2022-10-31 20:53:45 | 显示全部楼层
分享的不错,希望楼主继续分享
回复 支持 反对

使用道具 举报

61

主题

1537

帖子

4435

积分

4K家园VIP

Rank: 9Rank: 9Rank: 9

积分
4435
发表于 2022-10-31 22:23:11 | 显示全部楼层
高手啊
回复 支持 反对

使用道具 举报

1

主题

1727

帖子

4837

积分

4K家园VIP

Rank: 9Rank: 9Rank: 9

积分
4837
发表于 2022-11-1 06:19:10 | 显示全部楼层
这个资源我记得是一套的,楼主还有没有
回复 支持 反对

使用道具 举报

主题

帖子

0

积分

4K家园VIP

Rank: 9Rank: 9Rank: 9

积分
0
发表于 2022-11-1 08:54:02 | 显示全部楼层
太好啦&萬分感謝版主的無私發佈分享%
回复 支持 反对

使用道具 举报

2

主题

1249

帖子

3762

积分

4K家园VIP

Rank: 9Rank: 9Rank: 9

积分
3762
发表于 2022-11-9 07:50:24 | 显示全部楼层
大人,此事必有蹊跷!
回复 支持 反对

使用道具 举报

38

主题

1538

帖子

4432

积分

4K家园VIP

Rank: 9Rank: 9Rank: 9

积分
4432
发表于 2022-11-11 14:55:51 | 显示全部楼层
撸过
回复 支持 反对

使用道具 举报

46

主题

1524

帖子

4408

积分

4K家园VIP

Rank: 9Rank: 9Rank: 9

积分
4408
发表于 2022-11-12 08:31:48 | 显示全部楼层
支持一下楼主发表的内容
回复 支持 反对

使用道具 举报

您需要登录后才可以回帖 登录 | 立即注册

本版积分规则

精彩图文
Archiver|手机版|TAG|Sitemap|新帖|专题|联系我们:邮箱: 4kjia.com@gmail.com   

4k家园   ©2019