[4K电影] 月光光心慌慌:终结 / Halloween Ends (2022) 4K高清版本下载

[复制链接]

主题

帖子

0

积分

超级版主

Rank: 8Rank: 8

积分
0
 楼主| 发表于 2022-10-31 20:28:14 | 显示全部楼层 |阅读模式
115945p1k84dg4gnna61gu.png

◎译  名 月光光心慌慌:终结 / 月光光新慌慌:万圣结(台) / 了结月光光(港) / 万圣节终结
◎片  名 Halloween Ends
◎年  代 2022
◎产  地 美国
◎类  别 惊悚 / 恐怖
◎语  言 英语
◎上映日期 2022-10-14(美国/美国网络)
◎IMDb评分 5.0/10 from 39625 users 更新 : 2022-10-29
◎IMDb链接 https://www.imdb.com/title/tt10665342/
◎豆瓣评分 5.1/10 from 2848 users 更新 : 2022-10-31
◎豆瓣链接 https://movie.douban.com/subject/34626281/
◎片  长 110 分钟
◎导  演 大卫·戈登·格林 David Gordon Green
◎编  剧 保罗·布莱德·罗根 Paul Brad Logan / 克里斯·伯尼尔 Chris Bernier / 丹尼·麦克布莱德 Danny McBride / 约翰·卡朋特 John Carpenter / 黛布拉·希尔 Debra Hill
◎主  演 杰米·李·柯蒂斯 Jamie Lee Curtis
                   安迪·马蒂切克 Andi Matichak
                   詹姆斯·裘德·柯特尼 James Jude Courtney
                   罗汉·坎贝尔 Rohan Campbell
                   威尔·帕顿 Will Patton
                   凯尔·理查兹 Kyle Richards
                   尼克·卡斯特尔 Nick Castle
                   斯蒂芬妮·麦金太尔 Stephanie McIntyre
                   艾米莉·布林克斯 Emily Brinks
                   迪伦·贝利斯 Dillon Belisle
                   德里克·莱蒙Derrick Lemmon
                   约瑟夫·韦伯 Joseph D. Webb
                   道恩·拉斯基 Dawn Lasusky
                   威廉·布鲁克斯·佩雷斯 William Brooks Perez
                   尼克·劳伦斯 Nick Lawrence
                   大卫·古鲁 David Gurule


◎简  介

        “这是洛莉·史特罗德的最后一搏。”
  45年后,影史最受好评与最受尊崇恐怖片电影系列,即将迎来史诗般的惊惧结局,洛莉史特罗德将与恶灵化身麦克·迈尔斯,展开一场最终的生死搏斗,这将会是一场史无前例的终极大战,他们只有一个人能够存活。
  《月光光新慌慌:万圣杀》一片中发生恐怖事件的四年后,洛莉(杰米·李·柯蒂斯 饰)和她的外孙女爱丽森(安迪·马蒂切克 饰)住在一起,并且正在完成她的回忆录。杀人魔麦克迈尔斯自从上次大开杀戒之后就消失无踪,而洛莉这几十年来一直活在麦克·迈尔斯的恐怖阴影下,她受到的心理创伤以及报复心态也左右了她的人生,但是她决定放下长久以来的恐惧和愤怒,终于学会拥抱人生、享受生活。但是当一名年轻男子柯瑞·康宁汉(罗汉·坎贝尔 饰)遭到指控杀害他当保姆的一名男童时,就引发了一连串的暴力和恐怖事件,迫使洛莉和她无法掌控的邪恶力量展开一场终极大战,试图永远消灭麦克·迈尔斯这个恶灵。

Video
ID : 1
Format : HEVC
Format/Info : High Efficiency Video Coding
Format profile : Main 10@L5@High
HDR format : Dolby Vision, Version 1.0, dvhe.05.06, BL+RPU
Codec ID : V_MPEGH/ISO/HEVC
Duration : 1 h 50 min
Bit rate : 14.6 Mb/s
Width : 3 840 pixels
Height : 1 600 pixels
Display aspect ratio : 2.40:1
Frame rate mode : Constant
Frame rate : 23.976 (24000/1001) FPS
Color space : YUV
Chroma subsampling : 4:2:0
Bit depth : 10 bits
Bits/(Pixel*Frame) : 0.099
Stream size : 11.3 GiB (95%)
Default : Yes
Forced : No

Audio
ID : 2
Format : E-AC-3 JOC
Format/Info : Enhanced AC-3 with Joint Object Coding
Commercial name : Dolby Digital Plus with Dolby Atmos
Codec ID : A_EAC3
Duration : 1 h 50 min
Bit rate mode : Constant
Bit rate : 768 kb/s
Channel(s) : 6 channels
Channel layout : L R C LFE Ls Rs
Sampling rate : 48.0 kHz
Frame rate : 31.250 FPS (1536 SPF)
Compression mode : Lossy
Stream size : 609 MiB (5%)
Language : English
Service kind : Complete Main
Default : Yes
Forced : No
Complexity index : 16
Number of dynamic objects : 15
Bed channel count : 1 channel
Bed channel configuration : LFE

Text #1
ID : 3
Format : UTF-8
Codec ID : S_TEXT/UTF8
Codec ID/Info : UTF-8 Plain Text
Duration : 1 h 50 min
Bit rate : 52 b/s
Frame rate : 0.222 FPS
Count of elements : 1469
Stream size : 42.3 KiB (0%)
Language : English
Default : Yes
Forced : No

Text #2
ID : 4
Format : UTF-8
Codec ID : S_TEXT/UTF8
Codec ID/Info : UTF-8 Plain Text
Duration : 1 h 50 min
Bit rate : 62 b/s
Frame rate : 0.272 FPS
Count of elements : 1802
Stream size : 50.5 KiB (0%)
Title : SDH
Language : English
Default : No
Forced : No


为了更好体验下载、推荐使用qBittorrent、uTorrent、BitComet等下载软件,有条件的推荐115或会员下载软件!

下载地址:

游客,如果您要查看本帖隐藏内容请回复

游客,如果您要查看本帖隐藏内容请回复

游客,如果您要查看本帖隐藏内容请回复

游客,如果您要查看本帖隐藏内容请回复



其他4K高清版本链接:月光光心慌慌:终结 / Halloween Ends (2022) 4K高清版本下载




上一篇:吵闹鬼 / Poltergeist (1982) 4K高清版本下载
下一篇:吉吉和内特 / Gigi & Nate (2022) 4K高清版本下载
回复

使用道具 举报

2

主题

1508

帖子

4360

积分

4K家园VIP

Rank: 9Rank: 9Rank: 9

积分
4360
发表于 2022-10-31 20:28:20 | 显示全部楼层
发发呆,回回帖,工作结束~
回复 支持 反对

使用道具 举报

主题

帖子

0

积分

4K家园VIP

Rank: 9Rank: 9Rank: 9

积分
0
发表于 2022-10-31 20:39:20 | 显示全部楼层
太好啦&萬分感謝版主的無私發佈分享%
回复 支持 反对

使用道具 举报

您需要登录后才可以回帖 登录 | 立即注册

本版积分规则

精彩图文
Archiver|手机版|TAG|Sitemap|新帖|专题|联系我们:邮箱: 4kjia.com@gmail.com   

4k家园   ©2019