[4K电影] 吉吉和内特 / Gigi & Nate (2022) 4K高清版本下载

[复制链接]

主题

帖子

0

积分

超级版主

Rank: 8Rank: 8

积分
0
 楼主| 发表于 2022-11-1 20:39:53 | 显示全部楼层 |阅读模式
本帖最后由 最爱4K哟 于 2022-11-1 21:08 编辑

QQ图片20221101210556_副本.png

◎译  名 吉吉&内特
◎片  名 Gigi & Nate
◎年  代 2022
◎产  地 瑞士 / 英国 / 美国
◎类  别 剧情
◎语  言 英语
◎上映日期 2022-09-02(美国)
◎IMDb评分 6.9/10 from 320 users 更新 : 2022-11-01
◎IMDb链接 https://www.imdb.com/title/tt10341196/
◎豆瓣评分 0/10 from 0 users
◎豆瓣链接 https://movie.douban.com/subject/35788189/
◎片  长 114分钟
◎导  演 尼克·哈姆 Nick Hamm
◎编  剧 尼克·哈姆 Nick Hamm
◎演  员 查理·罗 Charlie Rowe
       佐伊·玛格丽特·科莱蒂 Zoe Margaret Colletti
       马西娅·盖伊·哈登 Marcia Gay Harden
       约瑟芬·兰福德 Josephine Langford
       詹姆斯·贝鲁什 James Belushi
       戴安·拉德 Diane Ladd
       塔拉·萨莫斯 Tara Summers
       汉娜·阿利古德 Hannah Alligood
       奥利·索罗坦 Olly Sholotan
       米谢尔·普拉达 Mishel Prada
       莎莎·康普 Sasha Compère
       莎拉· 斯托弗 Sarah Stouffer
       马丽娅豪厄尔 Maria Howell
       林赛·艾利夫 Lindsay Ayliffe
       艾米利奥·加西亚-桑切斯 Emilio Garcia-Sanchez
       凯蒂·莱曼 Katie Layman
       布鲁斯·欧文 Bruce Irvine
       小唐纳德·诺里斯 Donald Norris Jr.


◎简  介


  一个前途光明的年轻人遭遇了一场几乎致命的事故,在一位不太可能的动物朋友的帮助下重新开始了他的新生活。

Video
ID : 1
Format : HEVC
Format/Info : High Efficiency Video Coding
Format profile : Main 10@L5@High
HDR format : SMPTE ST 2094 App 4, Version 1, HDR10+ Profile B compatible
Codec ID : V_MPEGH/ISO/HEVC
Duration : 1 h 54 min
Bit rate : 24.4 Mb/s
Width : 3 824 pixels
Height : 1 592 pixels
Display aspect ratio : 2.40:1
Frame rate mode : Constant
Frame rate : 23.976 FPS
Color space : YUV
Chroma subsampling : 4:2:0 (Type 2)
Bit depth : 10 bits
Bits/(Pixel*Frame) : 0.167
Stream size : 19.5 GiB (98%)
Language : English
Default : Yes
Forced : No
Color range : Limited
Color primaries : BT.2020
Transfer characteristics : PQ
Matrix coefficients : BT.2020 non-constant
Mastering display color primaries : Display P3
Mastering display luminance : min: 0.0001 cd/m2, max: 1000 cd/m2
Maximum Content Light Level : 999 cd/m2
Maximum Frame-Average Light Level : 214 cd/m2

Audio
ID : 2
Format : AC-3
Format/Info : Audio Coding 3
Commercial name : Dolby Digital
Codec ID : A_AC3
Duration : 1 h 54 min
Bit rate mode : Constant
Bit rate : 384 kb/s
Channel(s) : 6 channels
Channel layout : L R C LFE Ls Rs
Sampling rate : 48.0 kHz
Frame rate : 31.250 FPS (1536 SPF)
Compression mode : Lossy
Stream size : 314 MiB (2%)
Language : English
Service kind : Complete Main
Default : Yes
Forced : No

Text #1
ID : 3
Format : UTF-8
Codec ID : S_TEXT/UTF8
Codec ID/Info : UTF-8 Plain Text
Duration : 1 h 53 min
Bit rate : 72 b/s
Frame rate : 0.287 FPS
Count of elements : 1953
Stream size : 60.6 KiB (0%)
Title : SDH
Language : English
Default : No
Forced : No

Text #2
ID : 4
Format : UTF-8
Codec ID : S_TEXT/UTF8
Codec ID/Info : UTF-8 Plain Text
Duration : 1 h 46 min
Bit rate : 64 b/s
Frame rate : 0.257 FPS
Count of elements : 1644
Stream size : 50.1 KiB (0%)
Language : English
Default : No
Forced : No

Text #3
ID : 5
Format : UTF-8
Codec ID : S_TEXT/UTF8
Codec ID/Info : UTF-8 Plain Text
Duration : 1 h 43 min
Bit rate : 48 b/s
Frame rate : 0.215 FPS
Count of elements : 1339
Stream size : 37.1 KiB (0%)
Language : French
Default : No
Forced : No

Menu
00:00:00.000 : en:Chapter 01
00:06:27.137 : en:Chapter 02
00:18:59.431 : en:Chapter 03
00:30:09.517 : en:Chapter 04
00:42:14.993 : en:Chapter 05
00:54:20.260 : en:Chapter 06
01:08:56.553 : en:Chapter 07
01:22:02.464 : en:Chapter 08
01:35:46.204 : en:Chapter 09
01:46:46.156 : en:Chapter 10

为了更好体验下载、推荐使用qBittorrent、uTorrent、BitComet等下载软件,有条件的推荐115或会员下载软件!

下载地址:


游客,如果您要查看本帖隐藏内容请回复

游客,如果您要查看本帖隐藏内容请回复




上一篇:月光光心慌慌:终结 / Halloween Ends (2022) 4K高清版本下载
下一篇:厄运逃生 / Hex (2022) 4K高清版本下载
回复

使用道具 举报

2

主题

1460

帖子

4232

积分

4K家园VIP

Rank: 9Rank: 9Rank: 9

积分
4232
发表于 2022-11-1 20:39:58 | 显示全部楼层
分享的不错,希望楼主继续分享
回复 支持 反对

使用道具 举报

头像被屏蔽

主题

帖子

1017

积分

禁止访问

积分
1017
发表于 2022-11-1 23:40:56 | 显示全部楼层
提示: 作者被禁止或删除 内容自动屏蔽
回复

使用道具 举报

主题

帖子

0

积分

4K家园VIP

Rank: 9Rank: 9Rank: 9

积分
0
发表于 2022-11-1 23:41:59 | 显示全部楼层
太好啦&萬分感謝版主的無私發佈分享%
回复 支持 反对

使用道具 举报

21

主题

1224

帖子

3666

积分

4K家园VIP

Rank: 9Rank: 9Rank: 9

积分
3666
发表于 2022-11-2 00:14:15 来自手机 | 显示全部楼层
报告!别开枪,我就是路过来看看的。。。
回复 支持 反对

使用道具 举报

51

主题

1459

帖子

4209

积分

4K家园VIP

Rank: 9Rank: 9Rank: 9

积分
4209
发表于 2022-11-2 00:35:03 | 显示全部楼层
4K家园资源最近貌似越来越多了
回复 支持 反对

使用道具 举报

1

主题

1296

帖子

3906

积分

4K家园VIP

Rank: 9Rank: 9Rank: 9

积分
3906
发表于 2022-11-2 06:02:52 | 显示全部楼层
支持支持再支持
回复 支持 反对

使用道具 举报

51

主题

1626

帖子

4694

积分

4K家园VIP

Rank: 9Rank: 9Rank: 9

积分
4694
发表于 2022-11-2 09:14:48 | 显示全部楼层
体验下4K版的
回复 支持 反对

使用道具 举报

主题

帖子

0

积分

新手上路

Rank: 1

积分
0
发表于 2022-11-2 12:55:07 | 显示全部楼层
感謝版主熱心分享,在此大力的頂頂頂!
回复 支持 反对

使用道具 举报

51

主题

1568

帖子

4524

积分

4K家园VIP

Rank: 9Rank: 9Rank: 9

积分
4524
发表于 2022-11-9 05:23:07 | 显示全部楼层
我只是路过,不发表意见
回复 支持 反对

使用道具 举报

您需要登录后才可以回帖 登录 | 立即注册

本版积分规则

精彩图文
Archiver|手机版|TAG|Sitemap|新帖|专题|联系我们:邮箱: 4kjia.com@gmail.com   

4k家园   ©2019