[4K电影] 桥之彼端 [简繁粤中字] / Causeway (2022) 4K高清版本下载

[复制链接]

主题

帖子

0

积分

超级版主

Rank: 8Rank: 8

积分
0
 楼主| 发表于 2022-11-4 18:16:36 | 显示全部楼层 |阅读模式
本帖最后由 最爱4K哟 于 2022-11-4 19:12 编辑

QQ图片20221104190725_副本.png

◎标  题 桥之彼端
◎译  名 堤道 / Red / White and Water
◎片  名 Causeway
◎年  代 2022
◎产  地 美国
◎类  别 剧情
◎语  言 英语
◎上映日期 2022-09-10(多伦多电影节) / 2022-11-04(美国网络)
◎IMDb评分 6.8/10 from 355 users 更新 : 2022-11-04
◎IMDb链接 https://www.imdb.com/title/tt10192406/
◎豆瓣评分 0/10 from 0 users
◎豆瓣链接 https://movie.douban.com/subject/33413753/
◎片  长 92分钟
◎导  演 莉拉·内格鲍尔 Lila Neugebauer
◎编  剧 奥蒂萨·莫什菲 Ottessa Moshfegh / 卢克·戈贝尔 Luke Goebel / 伊丽莎白·桑德斯 Elizabeth Sanders
◎演  员 詹妮弗·劳伦斯 Jennifer Lawrence
       布莱恩·泰里·亨利 Brian Tyree Henry
       琳达·伊蒙 Linda Emond
       斯蒂芬·亨德森 Stephen Henderson
       杰妮·霍蒂谢尔 Jayne Houdyshell
       尼尔·哈夫 Neal Huff
       韩·索托 Han Soto
       弗雷德里克·韦勒 Frederick Weller
       威尔·普伦 Will Pullen
       拉塞尔·哈瓦尔德 Russell Harvard
       詹姆斯·巴恩 James Bane
       蒂莫西·卡尔 Timothy Carr
       迪安·丹顿 Dean Denton
       塞缪尔·H·拉维尼 Samuel H. Levine
       杰伦·摩尔 Jaylen Moore
       托尼·查普曼·斯蒂尔 Toney Chapman Steele
       唐纳德·保罗 Donald Paul
       萨米拉·威利 Samira Wiley
       詹妮弗·劳伦斯 Jennifer Lawrence


◎简  介


  曾在阿富汗遭受创伤性脑损伤的前美国士兵琳赛(詹妮弗·劳伦斯 饰),在回到新奥尔良老家后,做着一份清理泳池的工作,努力康复并且适应生活。

Video
ID : 1
Format : HEVC
Format/Info : High Efficiency Video Coding
Format profile : Main 10@L5@High
HDR format : SMPTE ST 2094 App 4, Version 1, HDR10+ Profile B compatible
Codec ID : V_MPEGH/ISO/HEVC
Duration : 1 h 34 min
Bit rate : 24.5 Mb/s
Width : 3 840 pixels
Height : 2 076 pixels
Display aspect ratio : 1.85:1
Frame rate mode : Constant
Frame rate : 23.976 FPS
Color space : YUV
Chroma subsampling : 4:2:0 (Type 2)
Bit depth : 10 bits
Bits/(Pixel*Frame) : 0.128
Stream size : 16.1 GiB (97%)
Language : English
Default : Yes
Forced : No
Color range : Limited
Color primaries : BT.2020
Transfer characteristics : PQ
Matrix coefficients : BT.2020 non-constant
Mastering display color primaries : Display P3
Mastering display luminance : min: 0.0050 cd/m2, max: 1000 cd/m2
Maximum Content Light Level : 532 cd/m2
Maximum Frame-Average Light Level : 51 cd/m2

Audio
ID : 2
Format : E-AC-3 JOC
Format/Info : Enhanced AC-3 with Joint Object Coding
Commercial name : Dolby Digital Plus with Dolby Atmos
Codec ID : A_EAC3
Duration : 1 h 34 min
Bit rate mode : Constant
Bit rate : 768 kb/s
Channel(s) : 6 channels
Channel layout : L R C LFE Ls Rs
Sampling rate : 48.0 kHz
Frame rate : 31.250 FPS (1536 SPF)
Compression mode : Lossy
Stream size : 517 MiB (3%)
Language : English
Service kind : Complete Main
Default : Yes
Forced : No
Complexity index : 16
Number of dynamic objects : 15
Bed channel count : 1 channel
Bed channel configuration : LFE

Text #1
ID : 3
Format : UTF-8
Codec ID : S_TEXT/UTF8
Codec ID/Info : UTF-8 Plain Text
Duration : 3 min 8 s
Bit rate : 30 b/s
Frame rate : 0.201 FPS
Count of elements : 38
Stream size : 710 Bytes (0%)
Title : Forced
Language : English
Default : Yes
Forced : Yes

Text #2
ID : 4
Format : UTF-8
Codec ID : S_TEXT/UTF8
Codec ID/Info : UTF-8 Plain Text
Duration : 1 h 25 min
Bit rate : 39 b/s
Frame rate : 0.157 FPS
Count of elements : 804
Stream size : 24.5 KiB (0%)
Language : English
Default : No
Forced : No

Text #3
ID : 5
Format : UTF-8
Codec ID : S_TEXT/UTF8
Codec ID/Info : UTF-8 Plain Text
Duration : 1 h 25 min
Bit rate : 48 b/s
Frame rate : 0.183 FPS
Count of elements : 943
Stream size : 30.3 KiB (0%)
Title : SDH
Language : English
Default : No
Forced : No

Text #4
ID : 6
Format : UTF-8
Codec ID : S_TEXT/UTF8
Codec ID/Info : UTF-8 Plain Text
Duration : 1 h 32 min
Bit rate : 58 b/s
Frame rate : 0.150 FPS
Count of elements : 831
Stream size : 39.9 KiB (0%)
Language : Arabic
Default : No
Forced : No

Text #5
ID : 7
Format : UTF-8
Codec ID : S_TEXT/UTF8
Codec ID/Info : UTF-8 Plain Text
Duration : 1 h 32 min
Bit rate : 52 b/s
Frame rate : 0.136 FPS
Count of elements : 755
Stream size : 35.5 KiB (0%)
Language : Bulgarian
Default : No
Forced : No

Text #6
ID : 8
Format : UTF-8
Codec ID : S_TEXT/UTF8
Codec ID/Info : UTF-8 Plain Text
Duration : 1 h 33 min
Bit rate : 33 b/s
Frame rate : 0.142 FPS
Count of elements : 796
Stream size : 22.7 KiB (0%)
Language : Czech
Default : No
Forced : No

Text #7
ID : 9
Format : UTF-8
Codec ID : S_TEXT/UTF8
Codec ID/Info : UTF-8 Plain Text
Duration : 1 h 32 min
Bit rate : 32 b/s
Frame rate : 0.112 FPS
Count of elements : 622
Stream size : 22.0 KiB (0%)
Language : Danish
Default : No
Forced : No

Text #8
ID : 10
Format : UTF-8
Codec ID : S_TEXT/UTF8
Codec ID/Info : UTF-8 Plain Text
Duration : 1 h 32 min
Bit rate : 37 b/s
Frame rate : 0.145 FPS
Count of elements : 803
Stream size : 25.6 KiB (0%)
Language : German
Default : No
Forced : No

Text #9
ID : 11
Format : UTF-8
Codec ID : S_TEXT/UTF8
Codec ID/Info : UTF-8 Plain Text
Duration : 1 h 33 min
Bit rate : 59 b/s
Frame rate : 0.147 FPS
Count of elements : 821
Stream size : 40.5 KiB (0%)
Language : Greek
Default : No
Forced : No

Text #10
ID : 12
Format : UTF-8
Codec ID : S_TEXT/UTF8
Codec ID/Info : UTF-8 Plain Text
Duration : 1 h 32 min
Bit rate : 35 b/s
Frame rate : 0.148 FPS
Count of elements : 824
Stream size : 23.8 KiB (0%)
Language : Spanish
Default : No
Forced : No

Text #11
ID : 13
Format : UTF-8
Codec ID : S_TEXT/UTF8
Codec ID/Info : UTF-8 Plain Text
Duration : 1 h 33 min
Bit rate : 37 b/s
Frame rate : 0.147 FPS
Count of elements : 822
Stream size : 25.4 KiB (0%)
Title : Latin American
Language : Spanish
Default : No
Forced : No

Text #12
ID : 14
Format : UTF-8
Codec ID : S_TEXT/UTF8
Codec ID/Info : UTF-8 Plain Text
Duration : 1 h 32 min
Bit rate : 35 b/s
Frame rate : 0.140 FPS
Count of elements : 779
Stream size : 24.3 KiB (0%)
Language : Estonian
Default : No
Forced : No

Text #13
ID : 15
Format : UTF-8
Codec ID : S_TEXT/UTF8
Codec ID/Info : UTF-8 Plain Text
Duration : 1 h 32 min
Bit rate : 33 b/s
Frame rate : 0.147 FPS
Count of elements : 815
Stream size : 22.7 KiB (0%)
Language : Finnish
Default : No
Forced : No

Text #14
ID : 16
Format : UTF-8
Codec ID : S_TEXT/UTF8
Codec ID/Info : UTF-8 Plain Text
Duration : 1 h 27 min
Bit rate : 36 b/s
Frame rate : 0.167 FPS
Count of elements : 880
Stream size : 23.5 KiB (0%)
Language : French
Default : No
Forced : No

Text #15
ID : 17
Format : UTF-8
Codec ID : S_TEXT/UTF8
Codec ID/Info : UTF-8 Plain Text
Duration : 1 h 28 min
Bit rate : 36 b/s
Frame rate : 0.166 FPS
Count of elements : 882
Stream size : 23.5 KiB (0%)
Title : Canadian
Language : French
Default : No
Forced : No

Text #16
ID : 18
Format : UTF-8
Codec ID : S_TEXT/UTF8
Codec ID/Info : UTF-8 Plain Text
Duration : 1 h 32 min
Bit rate : 49 b/s
Frame rate : 0.150 FPS
Count of elements : 831
Stream size : 33.3 KiB (0%)
Language : Hebrew
Default : No
Forced : No

Text #17
ID : 19
Format : UTF-8
Codec ID : S_TEXT/UTF8
Codec ID/Info : UTF-8 Plain Text
Duration : 1 h 33 min
Bit rate : 105 b/s
Frame rate : 0.149 FPS
Count of elements : 832
Stream size : 72.1 KiB (0%)
Language : Hindi
Default : No
Forced : No

Text #18
ID : 20
Format : UTF-8
Codec ID : S_TEXT/UTF8
Codec ID/Info : UTF-8 Plain Text
Duration : 1 h 33 min
Bit rate : 33 b/s
Frame rate : 0.148 FPS
Count of elements : 826
Stream size : 23.2 KiB (0%)
Language : Hungarian
Default : No
Forced : No

Text #19
ID : 21
Format : UTF-8
Codec ID : S_TEXT/UTF8
Codec ID/Info : UTF-8 Plain Text
Duration : 1 h 32 min
Bit rate : 37 b/s
Frame rate : 0.148 FPS
Count of elements : 823
Stream size : 25.6 KiB (0%)
Language : Indonesian
Default : No
Forced : No

Text #20
ID : 22
Format : UTF-8
Codec ID : S_TEXT/UTF8
Codec ID/Info : UTF-8 Plain Text
Duration : 1 h 32 min
Bit rate : 39 b/s
Frame rate : 0.146 FPS
Count of elements : 810
Stream size : 26.7 KiB (0%)
Language : Italian
Default : No
Forced : No

Text #21
ID : 23
Format : UTF-8
Codec ID : S_TEXT/UTF8
Codec ID/Info : UTF-8 Plain Text
Duration : 1 h 33 min
Bit rate : 31 b/s
Frame rate : 0.155 FPS
Count of elements : 866
Stream size : 21.5 KiB (0%)
Language : Japanese
Default : No
Forced : No

Text #22
ID : 24
Format : UTF-8
Codec ID : S_TEXT/UTF8
Codec ID/Info : UTF-8 Plain Text
Duration : 1 h 33 min
Bit rate : 40 b/s
Frame rate : 0.149 FPS
Count of elements : 832
Stream size : 27.7 KiB (0%)
Language : Korean
Default : No
Forced : No

Text #23
ID : 25
Format : UTF-8
Codec ID : S_TEXT/UTF8
Codec ID/Info : UTF-8 Plain Text
Duration : 1 h 32 min
Bit rate : 33 b/s
Frame rate : 0.146 FPS
Count of elements : 812
Stream size : 23.0 KiB (0%)
Language : Lithuanian
Default : No
Forced : No

Text #24
ID : 26
Format : UTF-8
Codec ID : S_TEXT/UTF8
Codec ID/Info : UTF-8 Plain Text
Duration : 1 h 32 min
Bit rate : 36 b/s
Frame rate : 0.147 FPS
Count of elements : 818
Stream size : 24.9 KiB (0%)
Language : Latvian
Default : No
Forced : No

Text #25
ID : 27
Format : UTF-8
Codec ID : S_TEXT/UTF8
Codec ID/Info : UTF-8 Plain Text
Duration : 1 h 32 min
Bit rate : 38 b/s
Frame rate : 0.149 FPS
Count of elements : 826
Stream size : 25.9 KiB (0%)
Language : Malay
Default : No
Forced : No

Text #26
ID : 28
Format : UTF-8
Codec ID : S_TEXT/UTF8
Codec ID/Info : UTF-8 Plain Text
Duration : 1 h 32 min
Bit rate : 33 b/s
Frame rate : 0.132 FPS
Count of elements : 732
Stream size : 22.6 KiB (0%)
Language : Dutch
Default : No
Forced : No

Text #27
ID : 29
Format : UTF-8
Codec ID : S_TEXT/UTF8
Codec ID/Info : UTF-8 Plain Text
Duration : 1 h 32 min
Bit rate : 34 b/s
Frame rate : 0.139 FPS
Count of elements : 774
Stream size : 23.2 KiB (0%)
Language : Norwegian
Default : No
Forced : No

Text #28
ID : 30
Format : UTF-8
Codec ID : S_TEXT/UTF8
Codec ID/Info : UTF-8 Plain Text
Duration : 1 h 33 min
Bit rate : 33 b/s
Frame rate : 0.143 FPS
Count of elements : 799
Stream size : 22.6 KiB (0%)
Language : Polish
Default : No
Forced : No

Text #29
ID : 31
Format : UTF-8
Codec ID : S_TEXT/UTF8
Codec ID/Info : UTF-8 Plain Text
Duration : 1 h 32 min
Bit rate : 38 b/s
Frame rate : 0.148 FPS
Count of elements : 824
Stream size : 25.8 KiB (0%)
Language : Portuguese
Default : No
Forced : No

Text #30
ID : 32
Format : UTF-8
Codec ID : S_TEXT/UTF8
Codec ID/Info : UTF-8 Plain Text
Duration : 1 h 33 min
Bit rate : 33 b/s
Frame rate : 0.146 FPS
Count of elements : 817
Stream size : 22.8 KiB (0%)
Title : Brazilian
Language : Portuguese
Default : No
Forced : No

Text #31
ID : 33
Format : UTF-8
Codec ID : S_TEXT/UTF8
Codec ID/Info : UTF-8 Plain Text
Duration : 1 h 33 min
Bit rate : 54 b/s
Frame rate : 0.149 FPS
Count of elements : 834
Stream size : 37.4 KiB (0%)
Language : Russian
Default : No
Forced : No

Text #32
ID : 34
Format : UTF-8
Codec ID : S_TEXT/UTF8
Codec ID/Info : UTF-8 Plain Text
Duration : 1 h 33 min
Bit rate : 32 b/s
Frame rate : 0.145 FPS
Count of elements : 811
Stream size : 22.3 KiB (0%)
Language : Slovak
Default : No
Forced : No

Text #33
ID : 35
Format : UTF-8
Codec ID : S_TEXT/UTF8
Codec ID/Info : UTF-8 Plain Text
Duration : 1 h 32 min
Bit rate : 28 b/s
Frame rate : 0.146 FPS
Count of elements : 811
Stream size : 19.5 KiB (0%)
Language : Slovenian
Default : No
Forced : No

Text #34
ID : 36
Format : UTF-8
Codec ID : S_TEXT/UTF8
Codec ID/Info : UTF-8 Plain Text
Duration : 1 h 32 min
Bit rate : 36 b/s
Frame rate : 0.145 FPS
Count of elements : 805
Stream size : 24.5 KiB (0%)
Language : Swedish
Default : No
Forced : No

Text #35
ID : 37
Format : UTF-8
Codec ID : S_TEXT/UTF8
Codec ID/Info : UTF-8 Plain Text
Duration : 1 h 32 min
Bit rate : 119 b/s
Frame rate : 0.150 FPS
Count of elements : 831
Stream size : 81.2 KiB (0%)
Language : Tamil
Default : No
Forced : No

Text #36
ID : 38
Format : UTF-8
Codec ID : S_TEXT/UTF8
Codec ID/Info : UTF-8 Plain Text
Duration : 1 h 32 min
Bit rate : 108 b/s
Frame rate : 0.150 FPS
Count of elements : 831
Stream size : 73.7 KiB (0%)
Language : Telugu
Default : No
Forced : No

Text #37
ID : 39
Format : UTF-8
Codec ID : S_TEXT/UTF8
Codec ID/Info : UTF-8 Plain Text
Duration : 1 h 32 min
Bit rate : 90 b/s
Frame rate : 0.150 FPS
Count of elements : 831
Stream size : 61.4 KiB (0%)
Language : Thai
Default : No
Forced : No

Text #38
ID : 40
Format : UTF-8
Codec ID : S_TEXT/UTF8
Codec ID/Info : UTF-8 Plain Text
Duration : 1 h 32 min
Bit rate : 36 b/s
Frame rate : 0.147 FPS
Count of elements : 816
Stream size : 24.5 KiB (0%)
Language : Turkish
Default : No
Forced : No

Text #39
ID : 41
Format : UTF-8
Codec ID : S_TEXT/UTF8
Codec ID/Info : UTF-8 Plain Text
Duration : 1 h 33 min
Bit rate : 58 b/s
Frame rate : 0.147 FPS
Count of elements : 825
Stream size : 39.7 KiB (0%)
Language : Ukrainian
Default : No
Forced : No

Text #40
ID : 42
Format : UTF-8
Codec ID : S_TEXT/UTF8
Codec ID/Info : UTF-8 Plain Text
Duration : 1 h 33 min
Bit rate : 46 b/s
Frame rate : 0.148 FPS
Count of elements : 827
Stream size : 31.4 KiB (0%)
Language : Vietnamese
Default : No
Forced : No

Text #41
ID : 43
Format : UTF-8
Codec ID : S_TEXT/UTF8
Codec ID/Info : UTF-8 Plain Text
Duration : 1 h 33 min
Bit rate : 34 b/s
Frame rate : 0.149 FPS
Count of elements : 832
Stream size : 23.8 KiB (0%)
Title : 粤语中文
Language : Chinese
Default : No
Forced : No

Text #42
ID : 44
Format : UTF-8
Codec ID : S_TEXT/UTF8
Codec ID/Info : UTF-8 Plain Text
Duration : 1 h 32 min
Bit rate : 34 b/s
Frame rate : 0.150 FPS
Count of elements : 831
Stream size : 23.4 KiB (0%)
Title : 中文简体
Language : Chinese
Default : No
Forced : No

Text #43
ID : 45
Format : UTF-8
Codec ID : S_TEXT/UTF8
Codec ID/Info : UTF-8 Plain Text
Duration : 1 h 33 min
Bit rate : 36 b/s
Frame rate : 0.149 FPS
Count of elements : 832
Stream size : 25.1 KiB (0%)
Title : 中文繁体
Language : Chinese
Default : No
Forced : No

为了更好体验下载、推荐使用qBittorrent、uTorrent、BitComet等下载软件,有条件的推荐115或会员下载软件!

下载地址:


游客,如果您要查看本帖隐藏内容请回复

游客,如果您要查看本帖隐藏内容请回复

游客,如果您要查看本帖隐藏内容请回复

游客,如果您要查看本帖隐藏内容请回复






上一篇:看不见的呼唤 / Call of the Unseen (2022) 4K高清版本下载
下一篇:我的警察 [简繁中字] / My Policeman (2022) 4K高清版本下载
回复

使用道具 举报

0

主题

1652

帖子

4537

积分

4K家园VIP

Rank: 9Rank: 9Rank: 9

积分
4537
发表于 2022-11-4 18:16:40 | 显示全部楼层
不错 支持一个了
回复 支持 反对

使用道具 举报

48

主题

1547

帖子

4459

积分

4K家园VIP

Rank: 9Rank: 9Rank: 9

积分
4459
发表于 2022-11-4 22:35:17 | 显示全部楼层
占位编辑
回复 支持 反对

使用道具 举报

0

主题

1385

帖子

4177

积分

4K家园VIP

Rank: 9Rank: 9Rank: 9

积分
4177
发表于 2022-11-5 02:31:48 | 显示全部楼层
没人回帖。。。我来个吧
回复 支持 反对

使用道具 举报

2

主题

1520

帖子

4364

积分

4K家园VIP

Rank: 9Rank: 9Rank: 9

积分
4364
发表于 2022-11-5 04:51:56 | 显示全部楼层
4K电影下个试试
回复 支持 反对

使用道具 举报

主题

帖子

51

积分

新手上路

Rank: 1

积分
51
发表于 2022-11-5 16:50:33 | 显示全部楼层
4K电影下个试试
回复 支持 反对

使用道具 举报

0

主题

174

帖子

871

积分

4K家园VIP

Rank: 9Rank: 9Rank: 9

积分
871
发表于 2022-11-5 17:23:28 | 显示全部楼层
楼主辛苦了,谢谢楼主,感谢楼主分享,楼主好人一生平安!!!
回复 支持 反对

使用道具 举报

2

主题

1228

帖子

3704

积分

4K家园VIP

Rank: 9Rank: 9Rank: 9

积分
3704
发表于 2022-11-5 22:35:08 | 显示全部楼层
无论是不是沙发都得回复下
回复 支持 反对

使用道具 举报

39

主题

1493

帖子

4245

积分

4K家园VIP

Rank: 9Rank: 9Rank: 9

积分
4245
发表于 2022-11-11 05:05:22 | 显示全部楼层
LZ帖子不给力,勉强给回复下吧
回复 支持 反对

使用道具 举报

1

主题

1415

帖子

4259

积分

4K家园VIP

Rank: 9Rank: 9Rank: 9

积分
4259
发表于 2022-11-12 15:41:57 来自手机 | 显示全部楼层
呵呵。。。
回复 支持 反对

使用道具 举报

您需要登录后才可以回帖 登录 | 立即注册

本版积分规则

精彩图文
Archiver|手机版|TAG|Sitemap|新帖|专题|联系我们:邮箱: 4kjia.com@gmail.com   

4k家园   ©2019