[4K电影] 我的警察 [简繁中字] / My Policeman (2022) 4K高清版本下载

[复制链接]

主题

帖子

0

积分

超级版主

Rank: 8Rank: 8

积分
0
 楼主| 发表于 2022-11-4 18:44:04 | 显示全部楼层 |阅读模式
本帖最后由 最爱4K哟 于 2022-11-4 19:13 编辑

QQ图片20221104190939_副本.png

◎译  名 我的警察 / 我的警察恋人 / 男警察 / Vortex / 情感漩涡 / My Policeman:Vortex
◎片  名 My Policeman
◎年  代 2022
◎产  地 英国 / 美国
◎类  别 剧情 / 爱情 / 同性
◎语  言 英语
◎上映日期 2022-09-11(多伦多电影节) / 2022-10-21(美国) / 2022-11-04(美国网络)
◎IMDb评分 6.4/10 from 1181 users Updated : 2022-11-04
◎IMDb链接 https://www.imdb.com/title/tt13139228/
◎豆瓣评分 0/10 from 0 users
◎豆瓣链接 https://movie.douban.com/subject/35208173/
◎片  长 113分钟
◎导  演 迈克尔·格兰达吉 Michael Grandage
◎编  剧 罗恩·内斯万尼尔 Ron Nyswaner
◎演  员 哈里·斯泰尔斯 Harry Styles
      艾玛·科林 Emma Corrin
      大卫·道森 David Dawson
      莱纳斯·罗彻 Linus Roache
      吉娜·麦基 Gina McKee
      鲁伯特·艾弗雷特 Rupert Everett
      安德鲁·蒂曼 Andrew Tiernan
      杰克·班戴拉 Jack Bandeira
      卡迪夫·克尔万 Kadiff Kirwan
      特里斯坦·斯特罗克 Tristan Sturrock
      理查德·德姆西 Richard Dempsey
      伊恩·德赖斯代尔 Ian Drysdale
      罗伊辛·莫纳汉 Róisín Monaghan
      皮埃尔·伯格曼 Pierre Bergman
      迈克尔·莱利·麦格拉斯 Michael Riley McGrath
      安妮·西蒙斯 Annie Symons


◎简  介


  本片改编自同志题材小说《My Policeman》,哈卷将扮演男主角Tom,与女主角结婚之后发现自己的真爱却是博物馆策展人Patrick,讲述了上世纪英国布兰顿小镇上一对同性爱人与同妻之间的情感纠葛,情感之间就像无尽的漩涡一样,让人不知所措。

Video
ID : 1
Format : HEVC
Format/Info : High Efficiency Video Coding
Format profile : Main 10@L5@Main
HDR format : SMPTE ST 2094 App 4, Version 1, HDR10+ Profile B compatible
Codec ID : V_MPEGH/ISO/HEVC
Duration : 1 h 54 min
Bit rate : 14.6 Mb/s
Width : 3 840 pixels
Height : 2 080 pixels
Display aspect ratio : 1.85:1
Frame rate mode : Constant
Frame rate : 24.000 FPS
Color space : YUV
Chroma subsampling : 4:2:0
Bit depth : 10 bits
Bits/(Pixel*Frame) : 0.076
Stream size : 11.7 GiB (96%)
Language : English
Default : Yes
Forced : No
Color range : Limited
Color primaries : BT.2020
Transfer characteristics : PQ
Matrix coefficients : BT.2020 non-constant
Mastering display color primaries : Display P3
Mastering display luminance : min: 0.0001 cd/m2, max: 1000 cd/m2
Maximum Content Light Level : 491 cd/m2
Maximum Frame-Average Light Level : 512 cd/m2

Audio
ID : 2
Format : E-AC-3
Format/Info : Enhanced AC-3
Commercial name : Dolby Digital Plus
Codec ID : A_EAC3
Duration : 1 h 54 min
Bit rate mode : Constant
Bit rate : 640 kb/s
Channel(s) : 6 channels
Channel layout : L R C LFE Ls Rs
Sampling rate : 48.0 kHz
Frame rate : 31.250 FPS (1536 SPF)
Compression mode : Lossy
Stream size : 523 MiB (4%)
Title : British
Language : English
Service kind : Complete Main
Default : Yes
Forced : No

Text #1
ID : 3
Format : UTF-8
Codec ID : S_TEXT/UTF8
Codec ID/Info : UTF-8 Plain Text
Duration : 1 h 40 min
Bit rate : 41 b/s
Frame rate : 0.184 FPS
Count of elements : 1106
Stream size : 30.8 KiB (0%)
Title : British
Language : English
Default : No
Forced : No

Text #2
ID : 4
Format : UTF-8
Codec ID : S_TEXT/UTF8
Codec ID/Info : UTF-8 Plain Text
Duration : 1 h 52 min
Bit rate : 47 b/s
Frame rate : 0.215 FPS
Count of elements : 1448
Stream size : 38.8 KiB (0%)
Title : British (SDH)
Language : English
Default : No
Forced : No

Text #3
ID : 5
Format : UTF-8
Codec ID : S_TEXT/UTF8
Codec ID/Info : UTF-8 Plain Text
Duration : 1 h 52 min
Bit rate : 62 b/s
Frame rate : 0.155 FPS
Count of elements : 1041
Stream size : 51.4 KiB (0%)
Language : Arabic
Default : No
Forced : No

Text #4
ID : 6
Format : UTF-8
Codec ID : S_TEXT/UTF8
Codec ID/Info : UTF-8 Plain Text
Duration : 1 h 52 min
Bit rate : 35 b/s
Frame rate : 0.155 FPS
Count of elements : 1039
Stream size : 29.0 KiB (0%)
Language : Czech
Default : No
Forced : No

Text #5
ID : 7
Format : UTF-8
Codec ID : S_TEXT/UTF8
Codec ID/Info : UTF-8 Plain Text
Duration : 1 h 51 min
Bit rate : 36 b/s
Frame rate : 0.154 FPS
Count of elements : 1035
Stream size : 29.8 KiB (0%)
Language : Danish
Default : No
Forced : No

Text #6
ID : 8
Format : UTF-8
Codec ID : S_TEXT/UTF8
Codec ID/Info : UTF-8 Plain Text
Duration : 1 h 52 min
Bit rate : 37 b/s
Frame rate : 0.154 FPS
Count of elements : 1032
Stream size : 30.5 KiB (0%)
Language : German
Default : No
Forced : No

Text #7
ID : 9
Format : UTF-8
Codec ID : S_TEXT/UTF8
Codec ID/Info : UTF-8 Plain Text
Duration : 1 h 52 min
Bit rate : 64 b/s
Frame rate : 0.148 FPS
Count of elements : 993
Stream size : 53.0 KiB (0%)
Language : Greek
Default : No
Forced : No

Text #8
ID : 10
Format : UTF-8
Codec ID : S_TEXT/UTF8
Codec ID/Info : UTF-8 Plain Text
Duration : 1 h 52 min
Bit rate : 35 b/s
Frame rate : 0.155 FPS
Count of elements : 1039
Stream size : 29.1 KiB (0%)
Title : Latin American
Language : Spanish
Default : No
Forced : No

Text #9
ID : 11
Format : UTF-8
Codec ID : S_TEXT/UTF8
Codec ID/Info : UTF-8 Plain Text
Duration : 1 h 52 min
Bit rate : 36 b/s
Frame rate : 0.154 FPS
Count of elements : 1038
Stream size : 29.6 KiB (0%)
Language : Spanish
Default : No
Forced : No

Text #10
ID : 12
Format : UTF-8
Codec ID : S_TEXT/UTF8
Codec ID/Info : UTF-8 Plain Text
Duration : 1 h 51 min
Bit rate : 35 b/s
Frame rate : 0.154 FPS
Count of elements : 1036
Stream size : 29.3 KiB (0%)
Language : Finnish
Default : No
Forced : No

Text #11
ID : 13
Format : UTF-8
Codec ID : S_TEXT/UTF8
Codec ID/Info : UTF-8 Plain Text
Duration : 1 h 50 min
Bit rate : 35 b/s
Frame rate : 0.145 FPS
Count of elements : 960
Stream size : 28.5 KiB (0%)
Language : fil
Default : No
Forced : No

Text #12
ID : 14
Format : UTF-8
Codec ID : S_TEXT/UTF8
Codec ID/Info : UTF-8 Plain Text
Duration : 1 h 51 min
Bit rate : 37 b/s
Frame rate : 0.154 FPS
Count of elements : 1036
Stream size : 30.6 KiB (0%)
Language : French
Default : No
Forced : No

Text #13
ID : 15
Format : UTF-8
Codec ID : S_TEXT/UTF8
Codec ID/Info : UTF-8 Plain Text
Duration : 1 h 52 min
Bit rate : 59 b/s
Frame rate : 0.155 FPS
Count of elements : 1040
Stream size : 48.6 KiB (0%)
Language : Hebrew
Default : No
Forced : No

Text #14
ID : 16
Format : UTF-8
Codec ID : S_TEXT/UTF8
Codec ID/Info : UTF-8 Plain Text
Duration : 1 h 52 min
Bit rate : 91 b/s
Frame rate : 0.155 FPS
Count of elements : 1040
Stream size : 75.5 KiB (0%)
Language : Hindi
Default : No
Forced : No

Text #15
ID : 17
Format : UTF-8
Codec ID : S_TEXT/UTF8
Codec ID/Info : UTF-8 Plain Text
Duration : 1 h 52 min
Bit rate : 35 b/s
Frame rate : 0.145 FPS
Count of elements : 973
Stream size : 29.2 KiB (0%)
Language : Hungarian
Default : No
Forced : No

Text #16
ID : 18
Format : UTF-8
Codec ID : S_TEXT/UTF8
Codec ID/Info : UTF-8 Plain Text
Duration : 1 h 52 min
Bit rate : 35 b/s
Frame rate : 0.155 FPS
Count of elements : 1039
Stream size : 29.0 KiB (0%)
Language : Indonesian
Default : No
Forced : No

Text #17
ID : 19
Format : UTF-8
Codec ID : S_TEXT/UTF8
Codec ID/Info : UTF-8 Plain Text
Duration : 1 h 52 min
Bit rate : 36 b/s
Frame rate : 0.155 FPS
Count of elements : 1039
Stream size : 29.8 KiB (0%)
Language : Italian
Default : No
Forced : No

Text #18
ID : 20
Format : UTF-8
Codec ID : S_TEXT/UTF8
Codec ID/Info : UTF-8 Plain Text
Duration : 1 h 51 min
Bit rate : 30 b/s
Frame rate : 0.141 FPS
Count of elements : 949
Stream size : 24.9 KiB (0%)
Language : Japanese
Default : No
Forced : No

Text #19
ID : 21
Format : UTF-8
Codec ID : S_TEXT/UTF8
Codec ID/Info : UTF-8 Plain Text
Duration : 1 h 52 min
Bit rate : 45 b/s
Frame rate : 0.155 FPS
Count of elements : 1039
Stream size : 37.5 KiB (0%)
Language : Korean
Default : No
Forced : No

Text #20
ID : 22
Format : UTF-8
Codec ID : S_TEXT/UTF8
Codec ID/Info : UTF-8 Plain Text
Duration : 1 h 52 min
Bit rate : 35 b/s
Frame rate : 0.155 FPS
Count of elements : 1039
Stream size : 29.0 KiB (0%)
Language : Malay
Default : No
Forced : No

Text #21
ID : 23
Format : UTF-8
Codec ID : S_TEXT/UTF8
Codec ID/Info : UTF-8 Plain Text
Duration : 1 h 51 min
Bit rate : 35 b/s
Frame rate : 0.154 FPS
Count of elements : 1035
Stream size : 29.3 KiB (0%)
Language : Norwegian Bokmal
Default : No
Forced : No

Text #22
ID : 24
Format : UTF-8
Codec ID : S_TEXT/UTF8
Codec ID/Info : UTF-8 Plain Text
Duration : 1 h 51 min
Bit rate : 34 b/s
Frame rate : 0.154 FPS
Count of elements : 1036
Stream size : 28.5 KiB (0%)
Language : Dutch
Default : No
Forced : No

Text #23
ID : 25
Format : UTF-8
Codec ID : S_TEXT/UTF8
Codec ID/Info : UTF-8 Plain Text
Duration : 1 h 52 min
Bit rate : 35 b/s
Frame rate : 0.154 FPS
Count of elements : 1036
Stream size : 29.0 KiB (0%)
Language : Polish
Default : No
Forced : No

Text #24
ID : 26
Format : UTF-8
Codec ID : S_TEXT/UTF8
Codec ID/Info : UTF-8 Plain Text
Duration : 1 h 52 min
Bit rate : 35 b/s
Frame rate : 0.146 FPS
Count of elements : 979
Stream size : 29.0 KiB (0%)
Title : Brazilian
Language : Portuguese
Default : No
Forced : No

Text #25
ID : 27
Format : UTF-8
Codec ID : S_TEXT/UTF8
Codec ID/Info : UTF-8 Plain Text
Duration : 1 h 51 min
Bit rate : 36 b/s
Frame rate : 0.155 FPS
Count of elements : 1038
Stream size : 30.3 KiB (0%)
Language : Portuguese
Default : No
Forced : No

Text #26
ID : 28
Format : UTF-8
Codec ID : S_TEXT/UTF8
Codec ID/Info : UTF-8 Plain Text
Duration : 1 h 52 min
Bit rate : 39 b/s
Frame rate : 0.155 FPS
Count of elements : 1039
Stream size : 32.2 KiB (0%)
Language : Romanian
Default : No
Forced : No

Text #27
ID : 29
Format : UTF-8
Codec ID : S_TEXT/UTF8
Codec ID/Info : UTF-8 Plain Text
Duration : 1 h 52 min
Bit rate : 64 b/s
Frame rate : 0.155 FPS
Count of elements : 1040
Stream size : 53.2 KiB (0%)
Language : Russian
Default : No
Forced : No

Text #28
ID : 30
Format : UTF-8
Codec ID : S_TEXT/UTF8
Codec ID/Info : UTF-8 Plain Text
Duration : 1 h 51 min
Bit rate : 37 b/s
Frame rate : 0.154 FPS
Count of elements : 1036
Stream size : 30.5 KiB (0%)
Language : Swedish
Default : No
Forced : No

Text #29
ID : 31
Format : UTF-8
Codec ID : S_TEXT/UTF8
Codec ID/Info : UTF-8 Plain Text
Duration : 1 h 52 min
Bit rate : 98 b/s
Frame rate : 0.155 FPS
Count of elements : 1041
Stream size : 80.7 KiB (0%)
Language : Tamil
Default : No
Forced : No

Text #30
ID : 32
Format : UTF-8
Codec ID : S_TEXT/UTF8
Codec ID/Info : UTF-8 Plain Text
Duration : 1 h 52 min
Bit rate : 97 b/s
Frame rate : 0.155 FPS
Count of elements : 1041
Stream size : 80.3 KiB (0%)
Language : Telugu
Default : No
Forced : No

Text #31
ID : 33
Format : UTF-8
Codec ID : S_TEXT/UTF8
Codec ID/Info : UTF-8 Plain Text
Duration : 1 h 52 min
Bit rate : 91 b/s
Frame rate : 0.155 FPS
Count of elements : 1040
Stream size : 75.4 KiB (0%)
Language : Thai
Default : No
Forced : No

Text #32
ID : 34
Format : UTF-8
Codec ID : S_TEXT/UTF8
Codec ID/Info : UTF-8 Plain Text
Duration : 1 h 52 min
Bit rate : 35 b/s
Frame rate : 0.154 FPS
Count of elements : 1035
Stream size : 29.0 KiB (0%)
Language : Turkish
Default : No
Forced : No

Text #33
ID : 35
Format : UTF-8
Codec ID : S_TEXT/UTF8
Codec ID/Info : UTF-8 Plain Text
Duration : 1 h 52 min
Bit rate : 33 b/s
Frame rate : 0.155 FPS
Count of elements : 1040
Stream size : 27.7 KiB (0%)
Title : 简体中文
Language : Chinese
Default : No
Forced : No

Text #34
ID : 36
Format : UTF-8
Codec ID : S_TEXT/UTF8
Codec ID/Info : UTF-8 Plain Text
Duration : 1 h 52 min
Bit rate : 34 b/s
Frame rate : 0.155 FPS
Count of elements : 1040
Stream size : 28.5 KiB (0%)
Title : 繁体中文
Language : Chinese
Default : No
Forced : No

为了更好体验下载、推荐使用qBittorrent、uTorrent、BitComet等下载软件,有条件的推荐115或会员下载软件!

下载地址:


游客,如果您要查看本帖隐藏内容请回复



上一篇:桥之彼端 [简繁粤中字] / Causeway (2022) 4K高清版本下载
下一篇:赛琳娜·戈麦斯:我的思想和我[简繁粤](2022)4K高清版本下载
回复

使用道具 举报

3

主题

1423

帖子

4287

积分

4K家园VIP

Rank: 9Rank: 9Rank: 9

积分
4287
发表于 2022-11-4 18:44:07 | 显示全部楼层
这么强,支持楼主,佩服
回复 支持 反对

使用道具 举报

38

主题

1591

帖子

4553

积分

4K家园VIP

Rank: 9Rank: 9Rank: 9

积分
4553
发表于 2022-11-5 08:02:26 | 显示全部楼层
支持一下楼主发表的内容
回复 支持 反对

使用道具 举报

主题

帖子

31

积分

新手上路

Rank: 1

积分
31
发表于 2022-11-5 10:39:47 | 显示全部楼层
回复一下
回复

使用道具 举报

2

主题

1731

帖子

4811

积分

4K家园VIP

Rank: 9Rank: 9Rank: 9

积分
4811
发表于 2022-11-6 22:28:04 | 显示全部楼层
看起来好像不错的样子
回复 支持 反对

使用道具 举报

1

主题

1429

帖子

4305

积分

4K家园VIP

Rank: 9Rank: 9Rank: 9

积分
4305
发表于 2022-11-7 20:40:35 | 显示全部楼层
路过 帮顶 嘿嘿
回复 支持 反对

使用道具 举报

2

主题

1390

帖子

3984

积分

4K家园VIP

Rank: 9Rank: 9Rank: 9

积分
3984
发表于 2022-11-8 20:32:06 | 显示全部楼层
哈哈,我只看看不说话
回复 支持 反对

使用道具 举报

您需要登录后才可以回帖 登录 | 立即注册

本版积分规则

精彩图文
Archiver|手机版|TAG|Sitemap|新帖|专题|联系我们:邮箱: 4kjia.com@gmail.com   

4k家园   ©2019