[4K电影] 完美状态 / I'm Totally Fine (2022) 4K高清版本下载

[复制链接]

主题

帖子

0

积分

超级版主

Rank: 8Rank: 8

积分
0
 楼主| 发表于 2022-11-4 19:04:15 | 显示全部楼层 |阅读模式
本帖最后由 最爱4K哟 于 2022-11-4 19:12 编辑

QQ图片20221104190855_副本.png

◎标  题 完美状态
◎译  名 我没事 / 我能好好过
◎片  名 I'm Totally Fine
◎年  代 2022
◎产  地 美国
◎类  别 剧情 / 喜剧 / 科幻
◎语  言 英语
◎IMDb评分 0/10 from 0 users
◎IMDb链接 https://www.imdb.com/title/tt14122288/
◎豆瓣评分 0/10 from 0 users
◎豆瓣链接 https://movie.douban.com/subject/35950147/
◎演  员 娜塔丽·莫瑞丝 Natalie Morales
       哈维·吉兰 Harvey Guillen
       吉莉恩·贝尔 Jillian Bell
       布莱克.安德森 Blake Anderson
       辛丽娜·弗亚洛 Cyrina Fiallo
       凯尔·纽瓦切克 Kyle Newacheck
       丸山凯伦 Karen Maruyama


◎简  介


  一位哀悼的妇女,在她的朋友去世后,她独自一人出游以洗脑。然而,凡妮莎的自理假期计划在她遇到一个世界之外的情况时发生了变化。

Video
ID : 1
Format : HEVC
Format/Info : High Efficiency Video Coding
Format profile : Main 10@L5@High
Codec ID : V_MPEGH/ISO/HEVC
Duration : 1 h 23 min
Bit rate : 12.0 Mb/s
Width : 3 836 pixels
Height : 1 604 pixels
Display aspect ratio : 2.40:1
Frame rate mode : Constant
Frame rate : 23.976 FPS
Color space : YUV
Chroma subsampling : 4:2:0
Bit depth : 10 bits
Bits/(Pixel*Frame) : 0.081
Stream size : 6.95 GiB (97%)
Default : Yes
Forced : No
Color range : Limited
Color primaries : BT.709
Transfer characteristics : BT.709
Matrix coefficients : BT.709

Audio
ID : 2
Format : AC-3
Format/Info : Audio Coding 3
Commercial name : Dolby Digital
Codec ID : A_AC3
Duration : 1 h 23 min
Bit rate mode : Constant
Bit rate : 384 kb/s
Channel(s) : 6 channels
Channel layout : L R C LFE Ls Rs
Sampling rate : 48.0 kHz
Frame rate : 31.250 FPS (1536 SPF)
Compression mode : Lossy
Stream size : 229 MiB (3%)
Language : English
Service kind : Complete Main
Default : Yes
Forced : No

Text #1
ID : 3
Format : UTF-8
Codec ID : S_TEXT/UTF8
Codec ID/Info : UTF-8 Plain Text
Duration : 1 h 19 min
Bit rate : 57 b/s
Frame rate : 0.254 FPS
Count of elements : 1206
Stream size : 33.3 KiB (0%)
Language : English
Default : Yes
Forced : No

Text #2
ID : 4
Format : UTF-8
Codec ID : S_TEXT/UTF8
Codec ID/Info : UTF-8 Plain Text
Duration : 1 h 22 min
Bit rate : 63 b/s
Frame rate : 0.291 FPS
Count of elements : 1444
Stream size : 38.4 KiB (0%)
Title : SDH
Language : English
Default : No
Forced : No

为了更好体验下载、推荐使用qBittorrent、uTorrent、BitComet等下载软件,有条件的推荐115或会员下载软件!

下载地址:


游客,如果您要查看本帖隐藏内容请回复





上一篇:赛琳娜·戈麦斯:我的思想和我[简繁粤](2022)4K高清版本下载
下一篇:醒来即死亡 / The Minute You Wake Up Dead (2023)4K高清版本下载
回复

使用道具 举报

30

主题

1337

帖子

4033

积分

4K家园VIP

Rank: 9Rank: 9Rank: 9

积分
4033
发表于 2022-11-4 19:04:20 | 显示全部楼层
占位编辑
回复 支持 反对

使用道具 举报

0

主题

160

帖子

844

积分

4K家园VIP

Rank: 9Rank: 9Rank: 9

积分
844
发表于 2022-11-5 16:58:58 | 显示全部楼层
楼主辛苦了,谢谢楼主,感谢楼主分享,楼主好人一生平安!!!
回复 支持 反对

使用道具 举报

头像被屏蔽

主题

帖子

1017

积分

禁止访问

积分
1017
发表于 2022-11-7 06:33:10 | 显示全部楼层
提示: 作者被禁止或删除 内容自动屏蔽
回复

使用道具 举报

40

主题

1565

帖子

4507

积分

4K家园VIP

Rank: 9Rank: 9Rank: 9

积分
4507
发表于 2022-11-7 07:18:21 | 显示全部楼层
我也顶起出售广告位
回复 支持 反对

使用道具 举报

您需要登录后才可以回帖 登录 | 立即注册

本版积分规则

精彩图文
Archiver|手机版|TAG|Sitemap|新帖|专题|联系我们:邮箱: 4kjia.com@gmail.com   

4k家园   ©2019