[4K电影] 醒来即死亡 / The Minute You Wake Up Dead (2023)4K高清版本下载

[复制链接]

主题

帖子

0

积分

超级版主

Rank: 8Rank: 8

积分
0
 楼主| 发表于 2022-11-4 19:30:31 | 显示全部楼层 |阅读模式
本帖最后由 最爱4K哟 于 2022-11-4 20:31 编辑

QQ图片20221104192334_副本.png

◎片  名 醒来即死亡 The Minute You Wake Up Dead
◎年  代 2023
◎产  地 美国
◎类  别 惊悚
◎语  言 英语
◎上映日期 2022-11-04(美国)
◎IMDb评分  4.6/10 from 5 users
◎IMDb链接  https://www.imdb.com/title/tt11833408/
◎豆瓣评分 0/10 from 0 users
◎豆瓣链接 https://movie.douban.com/subject/35875465/
◎片  长 90 分钟
◎导  演 迈克尔·梅勒 Michael Mailer
◎编  剧 蒂莫西·霍兰德 Timothy Holland / 迈克尔·梅勒 Michael Mailer
◎主  演 科尔·豪瑟 Cole Hauser
       摩根·弗里曼 Morgan Freeman
       杰米·亚历山大 Jaimie Alexander
       安德鲁 史蒂文斯 Andrew Stevens
       达伦·曼恩 Darren Mann
       本·范德梅 Ben VanderMey
       肯尼斯·法玛尔 Kenneth Farmer
       托尼·德米尔 Tony Demil
       Liann Pattison Liann Pattison

◎简  介

  南部小镇的一名股票经纪人卷入了一场涉及与邻居的保险骗局,这场骗局导致了多起谋杀案。
Video
ID : 1
Format : HEVC
Format/Info : High Efficiency Video Coding
Format profile : Main 10@L5@High
Codec ID : V_MPEGH/ISO/HEVC
Duration : 1 h 30 min
Bit rate : 12.0 Mb/s
Width : 3 828 pixels
Height : 1 596 pixels
Display aspect ratio : 2.40:1
Frame rate mode : Constant
Frame rate : 23.976 FPS
Color space : YUV
Chroma subsampling : 4:2:0
Bit depth : 10 bits
Bits/(Pixel*Frame) : 0.082
Stream size : 7.54 GiB (97%)
Default : Yes
Forced : No
Color range : Limited
Color primaries : BT.709
Transfer characteristics : BT.709
Matrix coefficients : BT.709

Audio
ID : 2
Format : AC-3
Format/Info : Audio Coding 3
Commercial name : Dolby Digital
Codec ID : A_AC3
Duration : 1 h 30 min
Bit rate mode : Constant
Bit rate : 384 kb/s
Channel(s) : 6 channels
Channel layout : L R C LFE Ls Rs
Sampling rate : 48.0 kHz
Frame rate : 31.250 FPS (1536 SPF)
Compression mode : Lossy
Stream size : 248 MiB (3%)
Language : English
Service kind : Complete Main
Default : Yes
Forced : No

Text #1
ID : 3
Format : UTF-8
Codec ID : S_TEXT/UTF8
Codec ID/Info : UTF-8 Plain Text
Duration : 1 h 25 min
Bit rate : 61 b/s
Frame rate : 0.251 FPS
Count of elements : 1281
Stream size : 38.6 KiB (0%)
Language : English
Default : Yes
Forced : No

Text #2
ID : 4
Format : UTF-8
Codec ID : S_TEXT/UTF8
Codec ID/Info : UTF-8 Plain Text
Duration : 1 h 26 min
Bit rate : 66 b/s
Frame rate : 0.276 FPS
Count of elements : 1429
Stream size : 41.9 KiB (0%)
Title : SDH
Language : English
Default : No
Forced : No

为了更好体验下载、推荐使用qBittorrent、uTorrent、BitComet等下载软件,有条件的推荐115或会员下载软件!

下载地址:


游客,如果您要查看本帖隐藏内容请回复






上一篇:完美状态 / I'm Totally Fine (2022) 4K高清版本下载
下一篇:秩序 / The.System (2022) 4K高清版本下载
回复

使用道具 举报

0

主题

1713

帖子

4769

积分

4K家园VIP

Rank: 9Rank: 9Rank: 9

积分
4769
发表于 2022-11-4 19:30:38 | 显示全部楼层
哈哈,我只看看不说话
回复 支持 反对

使用道具 举报

47

主题

1561

帖子

4525

积分

4K家园VIP

Rank: 9Rank: 9Rank: 9

积分
4525
发表于 2022-11-4 19:30:39 | 显示全部楼层
好帖必须得顶起
回复 支持 反对

使用道具 举报

1

主题

1556

帖子

4518

积分

4K家园VIP

Rank: 9Rank: 9Rank: 9

积分
4518
发表于 2022-11-5 13:49:47 来自手机 | 显示全部楼层
顶起顶起顶起
回复 支持 反对

使用道具 举报

主题

帖子

492

积分

4K家园VIP

Rank: 9Rank: 9Rank: 9

积分
492
发表于 2022-11-5 14:26:06 | 显示全部楼层
谢谢楼主
回复

使用道具 举报

2

主题

1443

帖子

4351

积分

4K家园VIP

Rank: 9Rank: 9Rank: 9

积分
4351
发表于 2022-11-5 16:09:43 来自手机 | 显示全部楼层
专业抢沙发的!哈哈
回复 支持 反对

使用道具 举报

0

主题

160

帖子

844

积分

4K家园VIP

Rank: 9Rank: 9Rank: 9

积分
844
发表于 2022-11-5 17:24:01 | 显示全部楼层
让 江小白 来看看帖子里藏了啥好东西~~~
回复 支持 反对

使用道具 举报

38

主题

1591

帖子

4553

积分

4K家园VIP

Rank: 9Rank: 9Rank: 9

积分
4553
发表于 2022-11-6 14:33:33 | 显示全部楼层
前排支持下
回复 支持 反对

使用道具 举报

0

主题

26

帖子

58

积分

新手上路

Rank: 1

积分
58
发表于 2022-11-18 00:36:42 来自手机 | 显示全部楼层
太好啦&萬分感謝版主的無私發佈分享%
回复 支持 反对

使用道具 举报

您需要登录后才可以回帖 登录 | 立即注册

本版积分规则

精彩图文
Archiver|手机版|TAG|Sitemap|新帖|专题|联系我们:邮箱: 4kjia.com@gmail.com   

4k家园   ©2019