[4K电影] 秩序 / The.System (2022) 4K高清版本下载

[复制链接]

主题

帖子

0

积分

超级版主

Rank: 8Rank: 8

积分
0
 楼主| 发表于 2022-11-4 20:00:05 | 显示全部楼层 |阅读模式
本帖最后由 最爱4K哟 于 2022-11-4 20:37 编辑

QQ图片20221104195725_副本.png

◎片  名 秩序 THE SYSTEM / 危险卧底
◎年  代 2022
◎产  地 美国
◎类  别 动作片
◎语  言 英语
◎上映日期 2022-11-04(美国)
◎IMDb评分 5.7/10 from 72 users 更新 : 2022-11-04
◎IMDb链接 https://www.imdb.com/title/tt14037272/
◎豆瓣评分 0/10 from 0 users
◎豆瓣链接 https://movie.douban.com/subject/36111441/
◎片  长 97 分钟
◎导  演 达拉斯-杰克逊 Dallas Jackson
◎编  剧 达拉斯-杰克逊 Dallas Jackson
◎主  演 泰瑞斯·吉布森 Tyrese Gibson
       杰里米·皮文 Jeremy Piven
       泰伦斯·霍华德 Terrence Howard
       里克·赖茨 Ric Reitz
       Lil Yachty Lil Yachty
       凯莱布·斯比尔亚兹 Caleb Spillyards

◎简  介

  当一名刚从战争中归来的年轻士兵卷入毒品走私案时,他被当局招募到一个臭名昭著的危险监狱中卧底,以了解到底发生了什么。
Video
ID : 1
Format : HEVC
Format/Info : High Efficiency Video Coding
Format profile : Main 10@L5@High
Codec ID : V_MPEGH/ISO/HEVC
Duration : 1 h 37 min
Bit rate : 12.0 Mb/s
Width : 3 828 pixels
Height : 2 064 pixels
Display aspect ratio : 1.85:1
Frame rate mode : Constant
Frame rate : 23.976 FPS
Color space : YUV
Chroma subsampling : 4:2:0
Bit depth : 10 bits
Bits/(Pixel*Frame) : 0.063
Stream size : 8.15 GiB (97%)
Default : Yes
Forced : No
Color range : Limited
Color primaries : BT.709
Transfer characteristics : BT.709
Matrix coefficients : BT.709

Audio
ID : 2
Format : AC-3
Format/Info : Audio Coding 3
Commercial name : Dolby Digital
Codec ID : A_AC3
Duration : 1 h 37 min
Bit rate mode : Constant
Bit rate : 384 kb/s
Channel(s) : 6 channels
Channel layout : L R C LFE Ls Rs
Sampling rate : 48.0 kHz
Frame rate : 31.250 FPS (1536 SPF)
Compression mode : Lossy
Stream size : 268 MiB (3%)
Language : English
Service kind : Complete Main
Default : Yes
Forced : No

Text #1
ID : 3
Format : UTF-8
Codec ID : S_TEXT/UTF8
Codec ID/Info : UTF-8 Plain Text
Duration : 1 h 33 min
Bit rate : 44 b/s
Frame rate : 0.207 FPS
Count of elements : 1168
Stream size : 30.7 KiB (0%)
Language : English
Default : Yes
Forced : No

Text #2
ID : 4
Format : UTF-8
Codec ID : S_TEXT/UTF8
Codec ID/Info : UTF-8 Plain Text
Duration : 1 h 37 min
Bit rate : 56 b/s
Frame rate : 0.262 FPS
Count of elements : 1528
Stream size : 40.3 KiB (0%)
Title : SDH
Language : English
Default : No
Forced : No

为了更好体验下载、推荐使用qBittorrent、uTorrent、BitComet等下载软件,有条件的推荐115或会员下载软件!

下载地址:

游客,如果您要查看本帖隐藏内容请回复





上一篇:醒来即死亡 / The Minute You Wake Up Dead (2023)4K高清版本下载
下一篇:过度剂量[简繁中字] / Overdose (2022) 4K高清版本下载
回复

使用道具 举报

2

主题

1711

帖子

4773

积分

4K家园VIP

Rank: 9Rank: 9Rank: 9

积分
4773
发表于 2022-11-4 20:00:08 | 显示全部楼层
专业抢沙发的!哈哈
回复 支持 反对

使用道具 举报

主题

帖子

0

积分

新手上路

Rank: 1

积分
0
发表于 2022-11-5 11:21:07 | 显示全部楼层
谢谢楼主分享
回复 支持 反对

使用道具 举报

0

主题

174

帖子

871

积分

4K家园VIP

Rank: 9Rank: 9Rank: 9

积分
871
发表于 2022-11-5 17:24:42 | 显示全部楼层
让 江小白 来看看帖子里藏了啥好东西~~~
回复 支持 反对

使用道具 举报

主题

帖子

0

积分

4K家园VIP

Rank: 9Rank: 9Rank: 9

积分
0
发表于 2022-11-5 18:09:13 | 显示全部楼层
太好啦&萬分感謝版主的無私發佈分享%
回复 支持 反对

使用道具 举报

您需要登录后才可以回帖 登录 | 立即注册

本版积分规则

精彩图文
Archiver|手机版|TAG|Sitemap|新帖|专题|联系我们:邮箱: 4kjia.com@gmail.com   

4k家园   ©2019