[4K电影] 过度剂量[简繁中字] / Overdose (2022) 4K高清版本下载

[复制链接]

主题

帖子

0

积分

超级版主

Rank: 8Rank: 8

积分
0
 楼主| 发表于 2022-11-5 19:53:24 | 显示全部楼层 |阅读模式
本帖最后由 最爱4K哟 于 2022-11-5 20:08 编辑

QQ图片20221105194601_副本.png

◎译  名 高地人
◎片  名 Overdose
◎年  代 2022
◎产  地 法国
◎类  别 动作 / 惊悚 / 犯罪
◎语  言 法语
◎上映日期 2022-11-04(法国)
◎IMDb评分 0/10 from 0 users
◎IMDb链接 https://www.imdb.com/title/tt15713012/
◎豆瓣评分 0/10 from 0 users
◎豆瓣链接 https://movie.douban.com/subject/35700163/
◎片  长 119 分钟
◎导  演 奥利维埃·马夏尔 Olivier Marchal
◎编  剧 奥利维埃·马夏尔 Olivier Marchal / 克里斯托夫·加瓦特 Christophe Gavat / Pierre Pouchairet Pierre Pouchairet
◎主  演 索菲娅·埃萨伊迪 Sofia Essaïdi
                   阿萨德·包伯 Assaad Bouab                   阿尔维托·阿曼 Alberto Ammann
                   尼古拉·卡萨雷 Nicolas Cazalé
                   纳西姆·赖斯 Nassim Lyes
                   布鲁诺·洛普斯 Kool Shen
                   穆萨·曼斯莱 Moussa Mansaly
                   西蒙·阿布卡瑞安 Simon Abkarian
                   佐伊·马奇尔 Zoé Marchal
                   肯扎·福特斯 Kenza Fortas
                   法朗西斯·瑞纳德 Francis Renaud
                   娜伊玛·罗德里克 Naïma Rodric
                   库尔·尚 Kool Shen
                   皮埃尔·拉普拉斯 Pierre Laplace
                   塞巴斯蒂安·利贝萨特 Sébastien Libessart
                   奥利维尔·巴雷米 Olivier Barthélémy
                   西蒙·阿布卡里安 Simon Abkarian
                   菲利普·科尔蒂 Philippe Corti
                   肯扎·福塔斯 Kenza Fortas
                   卡洛斯·巴登 Carlos Bardem
                   尼古拉斯·马雷休Nicolas Marétheu


◎简  介


        跟随图卢兹警察缉毒队队长萨拉,萨拉被迫与当地刑警局局长理查德合作,阻止了一次快速行动在西班牙和法国之间寻找与此案有关的凶手。

Video
ID : 1
Format : HEVC
Format/Info : High Efficiency Video Coding
Format profile : Main 10@L5@Main
HDR format : SMPTE ST 2094 App 4, Version 1, HDR10+ Profile B compatible
Codec ID : V_MPEGH/ISO/HEVC
Duration : 1 h 59 min
Bit rate : 14.4 Mb/s
Width : 3 840 pixels
Height : 1 600 pixels
Display aspect ratio : 2.40:1
Frame rate mode : Constant
Frame rate : 24.000 FPS
Color space : YUV
Chroma subsampling : 4:2:0
Bit depth : 10 bits
Bits/(Pixel*Frame) : 0.098
Stream size : 12.1 GiB (92%)
Language : English
Default : Yes
Forced : No
Color range : Limited
Color primaries : BT.2020
Transfer characteristics : PQ
Matrix coefficients : BT.2020 non-constant
Mastering display color primaries : Display P3
Mastering display luminance : min: 0.0001 cd/m2, max: 1000 cd/m2
Maximum Content Light Level : 998 cd/m2
Maximum Frame-Average Light Level : 267 cd/m2

Audio #1
ID : 2
Format : E-AC-3
Format/Info : Enhanced AC-3
Commercial name : Dolby Digital Plus
Codec ID : A_EAC3
Duration : 1 h 59 min
Bit rate mode : Constant
Bit rate : 640 kb/s
Channel(s) : 6 channels
Channel layout : L R C LFE Ls Rs
Sampling rate : 48.0 kHz
Frame rate : 31.250 FPS (1536 SPF)
Compression mode : Lossy
Stream size : 548 MiB (4%)
Language : French
Service kind : Complete Main
Default : Yes
Forced : No

Audio #2
ID : 3
Format : E-AC-3
Format/Info : Enhanced AC-3
Commercial name : Dolby Digital Plus
Codec ID : A_EAC3
Duration : 1 h 59 min
Bit rate mode : Constant
Bit rate : 640 kb/s
Channel(s) : 6 channels
Channel layout : L R C LFE Ls Rs
Sampling rate : 48.0 kHz
Frame rate : 31.250 FPS (1536 SPF)
Compression mode : Lossy
Stream size : 548 MiB (4%)
Language : English
Service kind : Complete Main
Default : No
Forced : No

Text #1
ID : 4
Format : UTF-8
Codec ID : S_TEXT/UTF8
Codec ID/Info : UTF-8 Plain Text
Duration : 1 h 57 min
Bit rate : 56 b/s
Frame rate : 0.187 FPS
Count of elements : 1325
Stream size : 48.8 KiB (0%)
Language : French
Default : No
Forced : No

Text #2
ID : 5
Format : UTF-8
Codec ID : S_TEXT/UTF8
Codec ID/Info : UTF-8 Plain Text
Duration : 1 h 58 min
Bit rate : 68 b/s
Frame rate : 0.228 FPS
Count of elements : 1620
Stream size : 59.1 KiB (0%)
Title : SDH
Language : French
Default : No
Forced : No

Text #3
ID : 6
Format : UTF-8
Codec ID : S_TEXT/UTF8
Codec ID/Info : UTF-8 Plain Text
Duration : 1 h 52 min
Bit rate : 1 b/s
Frame rate : 0.005 FPS
Count of elements : 34
Stream size : 1.09 KiB (0%)
Title : Forced
Language : English
Default : No
Forced : Yes

Text #4
ID : 7
Format : UTF-8
Codec ID : S_TEXT/UTF8
Codec ID/Info : UTF-8 Plain Text
Duration : 1 h 58 min
Bit rate : 44 b/s
Frame rate : 0.186 FPS
Count of elements : 1323
Stream size : 38.3 KiB (0%)
Language : English
Default : No
Forced : No

Text #5
ID : 8
Format : UTF-8
Codec ID : S_TEXT/UTF8
Codec ID/Info : UTF-8 Plain Text
Duration : 1 h 58 min
Bit rate : 74 b/s
Frame rate : 0.188 FPS
Count of elements : 1337
Stream size : 64.5 KiB (0%)
Language : Arabic
Default : No
Forced : No

Text #6
ID : 9
Format : UTF-8
Codec ID : S_TEXT/UTF8
Codec ID/Info : UTF-8 Plain Text
Duration : 1 h 58 min
Bit rate : 41 b/s
Frame rate : 0.188 FPS
Count of elements : 1333
Stream size : 36.2 KiB (0%)
Language : Czech
Default : No
Forced : No

Text #7
ID : 10
Format : UTF-8
Codec ID : S_TEXT/UTF8
Codec ID/Info : UTF-8 Plain Text
Duration : 1 h 58 min
Bit rate : 42 b/s
Frame rate : 0.187 FPS
Count of elements : 1330
Stream size : 36.7 KiB (0%)
Language : Danish
Default : No
Forced : No

Text #8
ID : 11
Format : UTF-8
Codec ID : S_TEXT/UTF8
Codec ID/Info : UTF-8 Plain Text
Duration : 1 h 58 min
Bit rate : 43 b/s
Frame rate : 0.187 FPS
Count of elements : 1324
Stream size : 37.8 KiB (0%)
Language : German
Default : No
Forced : No

Text #9
ID : 12
Format : UTF-8
Codec ID : S_TEXT/UTF8
Codec ID/Info : UTF-8 Plain Text
Duration : 1 h 58 min
Bit rate : 80 b/s
Frame rate : 0.188 FPS
Count of elements : 1331
Stream size : 69.8 KiB (0%)
Language : Greek
Default : No
Forced : No

Text #10
ID : 13
Format : UTF-8
Codec ID : S_TEXT/UTF8
Codec ID/Info : UTF-8 Plain Text
Duration : 1 h 58 min
Bit rate : 37 b/s
Frame rate : 0.155 FPS
Count of elements : 1097
Stream size : 32.1 KiB (0%)
Title : Latin American
Language : Spanish
Default : No
Forced : No

Text #11
ID : 14
Format : UTF-8
Codec ID : S_TEXT/UTF8
Codec ID/Info : UTF-8 Plain Text
Duration : 1 h 58 min
Bit rate : 37 b/s
Frame rate : 0.154 FPS
Count of elements : 1095
Stream size : 32.1 KiB (0%)
Language : Spanish
Default : No
Forced : No

Text #12
ID : 15
Format : UTF-8
Codec ID : S_TEXT/UTF8
Codec ID/Info : UTF-8 Plain Text
Duration : 1 h 58 min
Bit rate : 43 b/s
Frame rate : 0.188 FPS
Count of elements : 1331
Stream size : 37.4 KiB (0%)
Language : Finnish
Default : No
Forced : No

Text #13
ID : 16
Format : UTF-8
Codec ID : S_TEXT/UTF8
Codec ID/Info : UTF-8 Plain Text
Duration : 1 h 58 min
Bit rate : 44 b/s
Frame rate : 0.188 FPS
Count of elements : 1333
Stream size : 38.6 KiB (0%)
Language : fil
Default : No
Forced : No

Text #14
ID : 17
Format : UTF-8
Codec ID : S_TEXT/UTF8
Codec ID/Info : UTF-8 Plain Text
Duration : 1 h 58 min
Bit rate : 70 b/s
Frame rate : 0.188 FPS
Count of elements : 1337
Stream size : 60.7 KiB (0%)
Language : Hebrew
Default : No
Forced : No

Text #15
ID : 18
Format : UTF-8
Codec ID : S_TEXT/UTF8
Codec ID/Info : UTF-8 Plain Text
Duration : 1 h 58 min
Bit rate : 107 b/s
Frame rate : 0.188 FPS
Count of elements : 1337
Stream size : 93.1 KiB (0%)
Language : Hindi
Default : No
Forced : No

Text #16
ID : 19
Format : UTF-8
Codec ID : S_TEXT/UTF8
Codec ID/Info : UTF-8 Plain Text
Duration : 1 h 58 min
Bit rate : 47 b/s
Frame rate : 0.188 FPS
Count of elements : 1335
Stream size : 40.9 KiB (0%)
Language : Hungarian
Default : No
Forced : No

Text #17
ID : 20
Format : UTF-8
Codec ID : S_TEXT/UTF8
Codec ID/Info : UTF-8 Plain Text
Duration : 1 h 58 min
Bit rate : 42 b/s
Frame rate : 0.188 FPS
Count of elements : 1335
Stream size : 36.8 KiB (0%)
Language : Indonesian
Default : No
Forced : No

Text #18
ID : 21
Format : UTF-8
Codec ID : S_TEXT/UTF8
Codec ID/Info : UTF-8 Plain Text
Duration : 1 h 58 min
Bit rate : 42 b/s
Frame rate : 0.188 FPS
Count of elements : 1335
Stream size : 37.1 KiB (0%)
Language : Italian
Default : No
Forced : No

Text #19
ID : 22
Format : UTF-8
Codec ID : S_TEXT/UTF8
Codec ID/Info : UTF-8 Plain Text
Duration : 1 h 58 min
Bit rate : 41 b/s
Frame rate : 0.170 FPS
Count of elements : 1205
Stream size : 36.0 KiB (0%)
Language : Japanese
Default : No
Forced : No

Text #20
ID : 23
Format : UTF-8
Codec ID : S_TEXT/UTF8
Codec ID/Info : UTF-8 Plain Text
Duration : 1 h 58 min
Bit rate : 49 b/s
Frame rate : 0.188 FPS
Count of elements : 1335
Stream size : 42.6 KiB (0%)
Language : Korean
Default : No
Forced : No

Text #21
ID : 24
Format : UTF-8
Codec ID : S_TEXT/UTF8
Codec ID/Info : UTF-8 Plain Text
Duration : 1 h 58 min
Bit rate : 42 b/s
Frame rate : 0.188 FPS
Count of elements : 1336
Stream size : 36.9 KiB (0%)
Language : Malay
Default : No
Forced : No

Text #22
ID : 25
Format : UTF-8
Codec ID : S_TEXT/UTF8
Codec ID/Info : UTF-8 Plain Text
Duration : 1 h 58 min
Bit rate : 42 b/s
Frame rate : 0.188 FPS
Count of elements : 1334
Stream size : 36.7 KiB (0%)
Language : Norwegian Bokmal
Default : No
Forced : No

Text #23
ID : 26
Format : UTF-8
Codec ID : S_TEXT/UTF8
Codec ID/Info : UTF-8 Plain Text
Duration : 1 h 58 min
Bit rate : 43 b/s
Frame rate : 0.188 FPS
Count of elements : 1332
Stream size : 37.4 KiB (0%)
Language : Dutch
Default : No
Forced : No

Text #24
ID : 27
Format : UTF-8
Codec ID : S_TEXT/UTF8
Codec ID/Info : UTF-8 Plain Text
Duration : 1 h 58 min
Bit rate : 40 b/s
Frame rate : 0.188 FPS
Count of elements : 1331
Stream size : 34.9 KiB (0%)
Language : Polish
Default : No
Forced : No

Text #25
ID : 28
Format : UTF-8
Codec ID : S_TEXT/UTF8
Codec ID/Info : UTF-8 Plain Text
Duration : 1 h 58 min
Bit rate : 42 b/s
Frame rate : 0.188 FPS
Count of elements : 1335
Stream size : 37.2 KiB (0%)
Title : Brazilian
Language : Portuguese
Default : No
Forced : No

Text #26
ID : 29
Format : UTF-8
Codec ID : S_TEXT/UTF8
Codec ID/Info : UTF-8 Plain Text
Duration : 1 h 58 min
Bit rate : 42 b/s
Frame rate : 0.188 FPS
Count of elements : 1331
Stream size : 36.5 KiB (0%)
Language : Portuguese
Default : No
Forced : No

Text #27
ID : 30
Format : UTF-8
Codec ID : S_TEXT/UTF8
Codec ID/Info : UTF-8 Plain Text
Duration : 1 h 58 min
Bit rate : 46 b/s
Frame rate : 0.188 FPS
Count of elements : 1335
Stream size : 39.9 KiB (0%)
Language : Romanian
Default : No
Forced : No

Text #28
ID : 31
Format : UTF-8
Codec ID : S_TEXT/UTF8
Codec ID/Info : UTF-8 Plain Text
Duration : 1 h 58 min
Bit rate : 71 b/s
Frame rate : 0.188 FPS
Count of elements : 1337
Stream size : 62.0 KiB (0%)
Language : Russian
Default : No
Forced : No

Text #29
ID : 32
Format : UTF-8
Codec ID : S_TEXT/UTF8
Codec ID/Info : UTF-8 Plain Text
Duration : 1 h 58 min
Bit rate : 42 b/s
Frame rate : 0.188 FPS
Count of elements : 1334
Stream size : 37.1 KiB (0%)
Language : Swedish
Default : No
Forced : No

Text #30
ID : 33
Format : UTF-8
Codec ID : S_TEXT/UTF8
Codec ID/Info : UTF-8 Plain Text
Duration : 1 h 58 min
Bit rate : 115 b/s
Frame rate : 0.188 FPS
Count of elements : 1337
Stream size : 100 KiB (0%)
Language : Tamil
Default : No
Forced : No

Text #31
ID : 34
Format : UTF-8
Codec ID : S_TEXT/UTF8
Codec ID/Info : UTF-8 Plain Text
Duration : 1 h 58 min
Bit rate : 115 b/s
Frame rate : 0.188 FPS
Count of elements : 1336
Stream size : 100 KiB (0%)
Language : Telugu
Default : No
Forced : No

Text #32
ID : 35
Format : UTF-8
Codec ID : S_TEXT/UTF8
Codec ID/Info : UTF-8 Plain Text
Duration : 1 h 58 min
Bit rate : 104 b/s
Frame rate : 0.188 FPS
Count of elements : 1337
Stream size : 90.9 KiB (0%)
Language : Thai
Default : No
Forced : No

Text #33
ID : 36
Format : UTF-8
Codec ID : S_TEXT/UTF8
Codec ID/Info : UTF-8 Plain Text
Duration : 1 h 58 min
Bit rate : 43 b/s
Frame rate : 0.188 FPS
Count of elements : 1334
Stream size : 38.0 KiB (0%)
Language : Turkish
Default : No
Forced : No

Text #34
ID : 37
Format : UTF-8
Codec ID : S_TEXT/UTF8
Codec ID/Info : UTF-8 Plain Text
Duration : 1 h 58 min
Bit rate : 67 b/s
Frame rate : 0.188 FPS
Count of elements : 1337
Stream size : 58.8 KiB (0%)
Title : Ukraine
Language : Ukrainian
Default : No
Forced : No

Text #35
ID : 38
Format : UTF-8
Codec ID : S_TEXT/UTF8
Codec ID/Info : UTF-8 Plain Text
Duration : 1 h 58 min
Bit rate : 55 b/s
Frame rate : 0.188 FPS
Count of elements : 1336
Stream size : 48.0 KiB (0%)
Title : Vietnam
Language : Vietnamese
Default : No
Forced : No

Text #36
ID : 39
Format : UTF-8
Codec ID : S_TEXT/UTF8
Codec ID/Info : UTF-8 Plain Text
Duration : 1 h 58 min
Bit rate : 43 b/s
Frame rate : 0.188 FPS
Count of elements : 1337
Stream size : 38.0 KiB (0%)
Title : 简体中字
Language : Chinese
Default : No
Forced : No

Text #37
ID : 40
Format : UTF-8
Codec ID : S_TEXT/UTF8
Codec ID/Info : UTF-8 Plain Text
Duration : 1 h 58 min
Bit rate : 36 b/s
Frame rate : 0.188 FPS
Count of elements : 1331
Stream size : 31.9 KiB (0%)
Title : 繁体中字
Language : Chinese
Default : No
Forced : No

为了更好体验下载、推荐使用qBittorrent、uTorrent、BitComet等下载软件,有条件的推荐115或会员下载软件!

下载地址:


游客,如果您要查看本帖隐藏内容请回复







上一篇:秩序 / The.System (2022) 4K高清版本下载
下一篇:红粉佳人 / Pretty in Pink (1986) 4K高清版本下载
回复

使用道具 举报

1

主题

1465

帖子

4211

积分

4K家园VIP

Rank: 9Rank: 9Rank: 9

积分
4211
发表于 2022-11-5 19:53:27 | 显示全部楼层
看起来不错
回复 支持 反对

使用道具 举报

主题

帖子

0

积分

新手上路

Rank: 1

积分
0
发表于 2022-11-5 23:45:03 | 显示全部楼层
多謝分享
回复

使用道具 举报

56

主题

1576

帖子

4584

积分

4K家园VIP

Rank: 9Rank: 9Rank: 9

积分
4584
发表于 2022-11-6 19:10:22 | 显示全部楼层
占位编辑
回复 支持 反对

使用道具 举报

主题

帖子

0

积分

新手上路

Rank: 1

积分
0
发表于 7 天前 | 显示全部楼层
回复

使用道具 举报

主题

帖子

0

积分

新手上路

Rank: 1

积分
0
发表于 前天 11:06 | 显示全部楼层
回复

使用道具 举报

您需要登录后才可以回帖 登录 | 立即注册

本版积分规则

精彩图文
Archiver|手机版|TAG|Sitemap|新帖|专题|联系我们:邮箱: 4kjia.com@gmail.com   

4k家园   ©2019