坏姐妹[j简繁粤中字]/Bad.Sisters(2022)第一季全/4K高清版本下载

[复制链接]

主题

帖子

0

积分

超级版主

Rank: 8Rank: 8

积分
0
 楼主| 发表于 2022-11-6 20:34:55 | 显示全部楼层 |阅读模式
本帖最后由 美剧小虾 于 2022-11-6 20:36 编辑

00dd6138d4e65c74e2be5f71123f6c52_副本.jpg

◎译  名 坏姐妹
◎片  名 Bad Sisters
◎年  代 2022
◎产  地 美国/比利时/英国
◎类  别 剧情/喜剧/惊悚
◎语  言 英语
◎上映日期 2022-08-19(英国)
◎IMDb评分 8.3/10 from 11327 users 更新 : 2022-11-04
◎IMDb链接 https://www.imdb.com/title/tt15469618/
◎豆瓣评分 8.5/10 from 3946 users 更新 : 2022-11-06
◎豆瓣链接 https://douban.com/subject/35776100/
◎集  数 10
◎主  演 安-玛莉·杜芙 Anne-Marie Duff
       克拉斯·邦 Claes Bang
       伊娃·柏西斯托 Eva Birthistle
       莎拉·格林 Sarah Greene
       伊芙·休森 Eve Hewson
       布莱恩·格里森 Brian Gleeson
       达利尔·麦克科马克 Daryl McCormack
       阿萨德·包伯 Assaad Bouab
       保罗·泰来克 Paul Tylak
       莎朗·豪根 Sharon Horgan
       艾米·德·毕罕 Amy De Bhrún

◎简  介

  女主遭到富豪丈夫的百般羞辱,她的妹妹们决定让她老公早点归西,事成之后,一对保险公司员工上门,来调查富豪之死的真相。


Video
ID : 1
Format : HEVC
Format/Info : High Efficiency Video Coding
Format profile : Main 10@L5@High
HDR format : SMPTE ST 2086, HDR10 compatible
Codec ID : V_MPEGH/ISO/HEVC
Duration : 58 min 19 s
Bit rate : 24.2 Mb/s
Width : 3 840 pixels
Height : 1 920 pixels
Display aspect ratio : 2.000
Frame rate mode : Constant
Frame rate : 23.976 (24000/1001) FPS
Color space : YUV
Chroma subsampling : 4:2:0 (Type 2)
Bit depth : 10 bits
Bits/(Pixel*Frame) : 0.137
Stream size : 9.87 GiB (97%)
Default : Yes
Forced : No
Color range : Limited
Color primaries : BT.2020
Transfer characteristics : PQ
Matrix coefficients : BT.2020 non-constant
Mastering display color primaries : Display P3
Mastering display luminance : min: 0.0050 cd/m2, max: 1000 cd/m2
Maximum Content Light Level : 2379 cd/m2
Maximum Frame-Average Light Level : 185 cd/m2

Audio
ID : 2
Format : E-AC-3 JOC
Format/Info : Enhanced AC-3 with Joint Object Coding
Commercial name : Dolby Digital Plus with Dolby Atmos
Codec ID : A_EAC3
Duration : 58 min 20 s
Bit rate mode : Constant
Bit rate : 768 kb/s
Channel(s) : 6 channels
Channel layout : L R C LFE Ls Rs
Sampling rate : 48.0 kHz
Frame rate : 31.250 FPS (1536 SPF)
Compression mode : Lossy
Stream size : 320 MiB (3%)
Language : English
Service kind : Complete Main
Default : Yes
Forced : No
Complexity index : 16
Number of dynamic objects : 15
Bed channel count : 1 channel
Bed channel configuration : LFE

Text #1
ID : 3
Format : UTF-8
Codec ID : S_TEXT/UTF8
Codec ID/Info : UTF-8 Plain Text
Duration : 2 s 2 ms
Bit rate : 99 b/s
Frame rate : 0.500 FPS
Count of elements : 1
Stream size : 25.0 Bytes (0%)
Title : Forced
Language : English
Default : Yes
Forced : Yes

Text #2
ID : 4
Format : UTF-8
Codec ID : S_TEXT/UTF8
Codec ID/Info : UTF-8 Plain Text
Duration : 56 min 20 s
Bit rate : 49 b/s
Frame rate : 0.186 FPS
Count of elements : 629
Stream size : 20.2 KiB (0%)
Language : English
Default : No
Forced : No

Text #3
ID : 5
Format : UTF-8
Codec ID : S_TEXT/UTF8
Codec ID/Info : UTF-8 Plain Text
Duration : 56 min 56 s
Bit rate : 59 b/s
Frame rate : 0.215 FPS
Count of elements : 735
Stream size : 24.8 KiB (0%)
Title : SDH
Language : English
Default : No
Forced : No

Text #4
ID : 6
Format : UTF-8
Codec ID : S_TEXT/UTF8
Codec ID/Info : UTF-8 Plain Text
Duration : 57 min 52 s
Bit rate : 68 b/s
Frame rate : 0.187 FPS
Count of elements : 651
Stream size : 29.0 KiB (0%)
Language : Arabic
Default : No
Forced : No

Text #5
ID : 7
Format : UTF-8
Codec ID : S_TEXT/UTF8
Codec ID/Info : UTF-8 Plain Text
Duration : 57 min 30 s
Bit rate : 69 b/s
Frame rate : 0.172 FPS
Count of elements : 595
Stream size : 29.2 KiB (0%)
Language : Bulgarian
Default : No
Forced : No

Text #6
ID : 8
Format : UTF-8
Codec ID : S_TEXT/UTF8
Codec ID/Info : UTF-8 Plain Text
Duration : 57 min 52 s
Bit rate : 43 b/s
Frame rate : 0.188 FPS
Count of elements : 652
Stream size : 18.6 KiB (0%)
Title : 中文简体
Language : Chinese
Default : No
Forced : No

Text #7
ID : 9
Format : UTF-8
Codec ID : S_TEXT/UTF8
Codec ID/Info : UTF-8 Plain Text
Duration : 57 min 52 s
Bit rate : 44 b/s
Frame rate : 0.188 FPS
Count of elements : 653
Stream size : 18.8 KiB (0%)
Title : 中文繁体
Language : Chinese
Default : No
Forced : No


Text #8
ID : 10
Format : UTF-8
Codec ID : S_TEXT/UTF8
Codec ID/Info : UTF-8 Plain Text
Duration : 57 min 50 s
Bit rate : 42 b/s
Frame rate : 0.181 FPS
Count of elements : 628
Stream size : 17.8 KiB (0%)
Language : Czech
Default : No
Forced : No

Text #9
ID : 11
Format : UTF-8
Codec ID : S_TEXT/UTF8
Codec ID/Info : UTF-8 Plain Text
Duration : 57 min 50 s
Bit rate : 47 b/s
Frame rate : 0.164 FPS
Count of elements : 569
Stream size : 20.3 KiB (0%)
Language : Danish
Default : No
Forced : No

Text #10
ID : 12
Format : UTF-8
Codec ID : S_TEXT/UTF8
Codec ID/Info : UTF-8 Plain Text
Duration : 58 min 3 s
Bit rate : 56 b/s
Frame rate : 0.189 FPS
Count of elements : 659
Stream size : 23.8 KiB (0%)
Language : German
Default : No
Forced : No

Text #11
ID : 13
Format : UTF-8
Codec ID : S_TEXT/UTF8
Codec ID/Info : UTF-8 Plain Text
Duration : 57 min 52 s
Bit rate : 76 b/s
Frame rate : 0.183 FPS
Count of elements : 636
Stream size : 32.4 KiB (0%)
Language : Greek
Default : No
Forced : No

Text #12
ID : 14
Format : UTF-8
Codec ID : S_TEXT/UTF8
Codec ID/Info : UTF-8 Plain Text
Duration : 57 min 52 s
Bit rate : 46 b/s
Frame rate : 0.187 FPS
Count of elements : 650
Stream size : 19.9 KiB (0%)
Title : Spanish (Latin America)
Language : Spanish
Default : No
Forced : No

Text #13
ID : 15
Format : UTF-8
Codec ID : S_TEXT/UTF8
Codec ID/Info : UTF-8 Plain Text
Duration : 58 min 3 s
Bit rate : 44 b/s
Frame rate : 0.186 FPS
Count of elements : 649
Stream size : 19.0 KiB (0%)
Title : Spanish (Spain)
Language : Spanish
Default : No
Forced : No

Text #14
ID : 16
Format : UTF-8
Codec ID : S_TEXT/UTF8
Codec ID/Info : UTF-8 Plain Text
Duration : 57 min 52 s
Bit rate : 45 b/s
Frame rate : 0.184 FPS
Count of elements : 640
Stream size : 19.3 KiB (0%)
Language : Estonian
Default : No
Forced : No

Text #15
ID : 17
Format : UTF-8
Codec ID : S_TEXT/UTF8
Codec ID/Info : UTF-8 Plain Text
Duration : 57 min 52 s
Bit rate : 44 b/s
Frame rate : 0.185 FPS
Count of elements : 643
Stream size : 18.8 KiB (0%)
Language : Finnish
Default : No
Forced : No

Text #16
ID : 18
Format : UTF-8
Codec ID : S_TEXT/UTF8
Codec ID/Info : UTF-8 Plain Text
Duration : 57 min 33 s
Bit rate : 43 b/s
Frame rate : 0.190 FPS
Count of elements : 657
Stream size : 18.3 KiB (0%)
Title : French (Canada)
Language : French
Default : No
Forced : No

Text #17
ID : 19
Format : UTF-8
Codec ID : S_TEXT/UTF8
Codec ID/Info : UTF-8 Plain Text
Duration : 57 min 33 s
Bit rate : 43 b/s
Frame rate : 0.190 FPS
Count of elements : 656
Stream size : 18.2 KiB (0%)
Title : French (France)
Language : French
Default : No
Forced : No

Text #18
ID : 20
Format : UTF-8
Codec ID : S_TEXT/UTF8
Codec ID/Info : UTF-8 Plain Text
Duration : 57 min 52 s
Bit rate : 66 b/s
Frame rate : 0.188 FPS
Count of elements : 652
Stream size : 28.3 KiB (0%)
Language : Hebrew
Default : No
Forced : No

Text #19
ID : 21
Format : UTF-8
Codec ID : S_TEXT/UTF8
Codec ID/Info : UTF-8 Plain Text
Duration : 57 min 52 s
Bit rate : 127 b/s
Frame rate : 0.188 FPS
Count of elements : 653
Stream size : 54.0 KiB (0%)
Language : Hindi
Default : No
Forced : No

Text #20
ID : 22
Format : UTF-8
Codec ID : S_TEXT/UTF8
Codec ID/Info : UTF-8 Plain Text
Duration : 57 min 52 s
Bit rate : 45 b/s
Frame rate : 0.185 FPS
Count of elements : 641
Stream size : 19.4 KiB (0%)
Language : Hungarian
Default : No
Forced : No

Text #21
ID : 23
Format : UTF-8
Codec ID : S_TEXT/UTF8
Codec ID/Info : UTF-8 Plain Text
Duration : 57 min 52 s
Bit rate : 48 b/s
Frame rate : 0.187 FPS
Count of elements : 648
Stream size : 20.6 KiB (0%)
Language : Indonesian
Default : No
Forced : No

Text #22
ID : 24
Format : UTF-8
Codec ID : S_TEXT/UTF8
Codec ID/Info : UTF-8 Plain Text
Duration : 58 min 3 s
Bit rate : 50 b/s
Frame rate : 0.186 FPS
Count of elements : 649
Stream size : 21.6 KiB (0%)
Language : Italian
Default : No
Forced : No

Text #23
ID : 25
Format : UTF-8
Codec ID : S_TEXT/UTF8
Codec ID/Info : UTF-8 Plain Text
Duration : 58 min 0 s
Bit rate : 40 b/s
Frame rate : 0.205 FPS
Count of elements : 714
Stream size : 17.2 KiB (0%)
Language : Japanese
Default : No
Forced : No

Text #24
ID : 26
Format : UTF-8
Codec ID : S_TEXT/UTF8
Codec ID/Info : UTF-8 Plain Text
Duration : 57 min 52 s
Bit rate : 53 b/s
Frame rate : 0.188 FPS
Count of elements : 653
Stream size : 22.5 KiB (0%)
Language : Korean
Default : No
Forced : No

Text #25
ID : 27
Format : UTF-8
Codec ID : S_TEXT/UTF8
Codec ID/Info : UTF-8 Plain Text
Duration : 57 min 52 s
Bit rate : 49 b/s
Frame rate : 0.187 FPS
Count of elements : 649
Stream size : 20.9 KiB (0%)
Language : Lithuanian
Default : No
Forced : No

Text #26
ID : 28
Format : UTF-8
Codec ID : S_TEXT/UTF8
Codec ID/Info : UTF-8 Plain Text
Duration : 57 min 52 s
Bit rate : 49 b/s
Frame rate : 0.188 FPS
Count of elements : 652
Stream size : 21.1 KiB (0%)
Language : Latvian
Default : No
Forced : No

Text #27
ID : 29
Format : UTF-8
Codec ID : S_TEXT/UTF8
Codec ID/Info : UTF-8 Plain Text
Duration : 57 min 52 s
Bit rate : 50 b/s
Frame rate : 0.186 FPS
Count of elements : 647
Stream size : 21.4 KiB (0%)
Language : Malay
Default : No
Forced : No

Text #28
ID : 30
Format : UTF-8
Codec ID : S_TEXT/UTF8
Codec ID/Info : UTF-8 Plain Text
Duration : 57 min 30 s
Bit rate : 43 b/s
Frame rate : 0.150 FPS
Count of elements : 519
Stream size : 18.1 KiB (0%)
Language : Dutch
Default : No
Forced : No

Text #29
ID : 31
Format : UTF-8
Codec ID : S_TEXT/UTF8
Codec ID/Info : UTF-8 Plain Text
Duration : 57 min 30 s
Bit rate : 43 b/s
Frame rate : 0.159 FPS
Count of elements : 550
Stream size : 18.4 KiB (0%)
Language : Norwegian
Default : No
Forced : No

Text #30
ID : 32
Format : UTF-8
Codec ID : S_TEXT/UTF8
Codec ID/Info : UTF-8 Plain Text
Duration : 57 min 52 s
Bit rate : 45 b/s
Frame rate : 0.183 FPS
Count of elements : 635
Stream size : 19.2 KiB (0%)
Language : Polish
Default : No
Forced : No

Text #31
ID : 33
Format : UTF-8
Codec ID : S_TEXT/UTF8
Codec ID/Info : UTF-8 Plain Text
Duration : 57 min 52 s
Bit rate : 50 b/s
Frame rate : 0.185 FPS
Count of elements : 642
Stream size : 21.6 KiB (0%)
Title : Portuguese
Language : Portuguese
Default : No
Forced : No

Text #32
ID : 34
Format : UTF-8
Codec ID : S_TEXT/UTF8
Codec ID/Info : UTF-8 Plain Text
Duration : 57 min 52 s
Bit rate : 44 b/s
Frame rate : 0.185 FPS
Count of elements : 641
Stream size : 19.0 KiB (0%)
Title : Portuguese (Brazil)
Language : Portuguese
Default : No
Forced : No

Text #33
ID : 35
Format : UTF-8
Codec ID : S_TEXT/UTF8
Codec ID/Info : UTF-8 Plain Text
Duration : 58 min 3 s
Bit rate : 81 b/s
Frame rate : 0.187 FPS
Count of elements : 651
Stream size : 34.8 KiB (0%)
Language : Russian
Default : No
Forced : No

Text #34
ID : 36
Format : UTF-8
Codec ID : S_TEXT/UTF8
Codec ID/Info : UTF-8 Plain Text
Duration : 57 min 30 s
Bit rate : 44 b/s
Frame rate : 0.186 FPS
Count of elements : 641
Stream size : 18.7 KiB (0%)
Language : Slovak
Default : No
Forced : No

Text #35
ID : 37
Format : UTF-8
Codec ID : S_TEXT/UTF8
Codec ID/Info : UTF-8 Plain Text
Duration : 57 min 50 s
Bit rate : 38 b/s
Frame rate : 0.160 FPS
Count of elements : 556
Stream size : 16.5 KiB (0%)
Language : Slovenian
Default : No
Forced : No

Text #36
ID : 38
Format : UTF-8
Codec ID : S_TEXT/UTF8
Codec ID/Info : UTF-8 Plain Text
Duration : 57 min 50 s
Bit rate : 49 b/s
Frame rate : 0.175 FPS
Count of elements : 608
Stream size : 21.1 KiB (0%)
Language : Swedish
Default : No
Forced : No

Text #37
ID : 39
Format : UTF-8
Codec ID : S_TEXT/UTF8
Codec ID/Info : UTF-8 Plain Text
Duration : 57 min 52 s
Bit rate : 160 b/s
Frame rate : 0.188 FPS
Count of elements : 652
Stream size : 67.9 KiB (0%)
Language : Tamil
Default : No
Forced : No

Text #38
ID : 40
Format : UTF-8
Codec ID : S_TEXT/UTF8
Codec ID/Info : UTF-8 Plain Text
Duration : 57 min 52 s
Bit rate : 145 b/s
Frame rate : 0.188 FPS
Count of elements : 652
Stream size : 61.9 KiB (0%)
Language : Telugu
Default : No
Forced : No

Text #39
ID : 41
Format : UTF-8
Codec ID : S_TEXT/UTF8
Codec ID/Info : UTF-8 Plain Text
Duration : 57 min 52 s
Bit rate : 108 b/s
Frame rate : 0.188 FPS
Count of elements : 652
Stream size : 45.8 KiB (0%)
Language : Thai
Default : No
Forced : No

Text #40
ID : 42
Format : UTF-8
Codec ID : S_TEXT/UTF8
Codec ID/Info : UTF-8 Plain Text
Duration : 57 min 52 s
Bit rate : 47 b/s
Frame rate : 0.183 FPS
Count of elements : 634
Stream size : 20.3 KiB (0%)
Language : Turkish
Default : No
Forced : No

Text #41
ID : 43
Format : UTF-8
Codec ID : S_TEXT/UTF8
Codec ID/Info : UTF-8 Plain Text
Duration : 57 min 30 s
Bit rate : 71 b/s
Frame rate : 0.187 FPS
Count of elements : 646
Stream size : 30.1 KiB (0%)
Language : Ukrainian
Default : No
Forced : No

Text #42
ID : 44
Format : UTF-8
Codec ID : S_TEXT/UTF8
Codec ID/Info : UTF-8 Plain Text
Duration : 57 min 52 s
Bit rate : 62 b/s
Frame rate : 0.187 FPS
Count of elements : 649
Stream size : 26.7 KiB (0%)
Language : Vietnamese
Default : No
Forced : No

Text #43
ID : 45
Format : UTF-8
Codec ID : S_TEXT/UTF8
Codec ID/Info : UTF-8 Plain Text
Duration : 57 min 52 s
Bit rate : 44 b/s
Frame rate : 0.188 FPS
Count of elements : 653
Stream size : 18.8 KiB (0%)
Title : 粤语中字
Language : Chinese
Default : No
Forced : No

下载地址:

游客,如果您要查看本帖隐藏内容请回复

游客,如果您要查看本帖隐藏内容请回复

游客,如果您要查看本帖隐藏内容请回复

游客,如果您要查看本帖隐藏内容请回复






上一篇:女浩克 [简繁粤中字] (2022))第一季全/4K高清版本下载
下一篇:看见 [简繁粤中字] / See (2022)第三季全/4K高清版本下载
回复

使用道具 举报

1

主题

1315

帖子

3961

积分

4K家园VIP

Rank: 9Rank: 9Rank: 9

积分
3961
发表于 2022-11-6 20:37:11 | 显示全部楼层
是爷们的娘们的都帮顶!大力支持
回复 支持 反对

使用道具 举报

主题

帖子

0

积分

4K家园VIP

Rank: 9Rank: 9Rank: 9

积分
0
发表于 2022-11-6 20:52:59 | 显示全部楼层
太好啦&萬分感謝版主的無私發佈分享%
回复 支持 反对

使用道具 举报

51

主题

1527

帖子

4485

积分

4K家园VIP

Rank: 9Rank: 9Rank: 9

积分
4485
发表于 2022-11-6 22:22:49 | 显示全部楼层
呵呵,低调,低调!
回复 支持 反对

使用道具 举报

2

主题

1466

帖子

4371

积分

4K家园VIP

Rank: 9Rank: 9Rank: 9

积分
4371
发表于 2022-11-7 01:27:26 | 显示全部楼层
支持,赞一个
回复 支持 反对

使用道具 举报

5

主题

1739

帖子

4823

积分

4K家园VIP

Rank: 9Rank: 9Rank: 9

积分
4823
发表于 2022-11-7 02:36:20 | 显示全部楼层
广告位,,坐下看看
回复 支持 反对

使用道具 举报

主题

帖子

0

积分

4K家园VIP

Rank: 9Rank: 9Rank: 9

积分
0
发表于 2022-11-7 09:03:08 | 显示全部楼层
太好啦&萬分感謝版主的無私發佈分享%
回复 支持 反对

使用道具 举报

2

主题

1394

帖子

4018

积分

4K家园VIP

Rank: 9Rank: 9Rank: 9

积分
4018
发表于 2022-11-7 12:11:51 | 显示全部楼层
有空一起交流一下
回复 支持 反对

使用道具 举报

44

主题

1575

帖子

4543

积分

4K家园VIP

Rank: 9Rank: 9Rank: 9

积分
4543
发表于 2022-11-9 13:09:05 | 显示全部楼层
打酱油的人拉,回复下赚取积分
回复 支持 反对

使用道具 举报

2

主题

1614

帖子

4414

积分

4K家园VIP

Rank: 9Rank: 9Rank: 9

积分
4414
发表于 2022-11-10 00:32:20 来自手机 | 显示全部楼层
众里寻他千百度,蓦然回首在这里!
回复 支持 反对

使用道具 举报

您需要登录后才可以回帖 登录 | 立即注册

本版积分规则

精彩图文
Archiver|手机版|TAG|Sitemap|新帖|专题|联系我们:邮箱: 4kjia.com@gmail.com   

4k家园   ©2019