[4K电影] 红粉佳人 / Pretty in Pink (1986) 4K高清版本下载

[复制链接]

主题

帖子

0

积分

超级版主

Rank: 8Rank: 8

积分
0
 楼主| 发表于 2022-11-7 12:37:25 | 显示全部楼层 |阅读模式
101624ou2kk1bvcgpv9ssp.png

◎译  名 红粉佳人/青春红粉梦
◎片  名 Pretty in Pink
◎年  代 1986
◎产  地 美国
◎类  别 剧情/喜剧/爱情
◎语  言 英语
◎上映日期 1986-02-28
◎IMDb评分 6.7/10 from 82314 users 更新 : 2022-11-04
◎IMDb链接 https://www.imdb.com/title/tt0091790/
◎豆瓣评分 7.3/10 from 1535 users 更新 : 2022-11-07
◎豆瓣链接 https://movie.douban.com/subject/1297376/
◎导  演 霍华德·达奇 Howard Deutch
◎编  剧 约翰·休斯 John Hughes
◎主  演 莫利·林沃德 Molly Ringwald
       哈利·戴恩·斯坦通 Harry Dean Stanton
       乔恩·克莱尔 Jon Cryer
         安妮·波茨 Annie Potts
       詹姆斯·斯派德 James Spader
       克里斯蒂·斯旺森 Kristy Swanson
       吉娜·格申 Gina Gershon
       凯特·维隆 Kate Vernon
       亚历克莎·克宁 Alexa Kenin
       玛格丽特·柯林 Margaret Colin
       安德鲁·麦卡锡 Andrew McCarthy
       麦琪·罗丝威尔 Maggie Roswell



◎简  介


  年轻的安迪是出身贫民区的女孩,在中学里并不受人欢迎。她经常同爱欧娜和达奇在一起,达奇迷恋安迪已久,但最近安迪结识了新生布雷恩,布雷恩的家境优越,对安迪构成了不小的诱惑……

Video
ID : 1
Format : HEVC
Format/Info : High Efficiency Video Coding
Format profile : Main 10@L5@High
HDR format : Dolby Vision, Version 1.0, dvhe.05.06, BL+RPU
Codec ID : V_MPEGH/ISO/HEVC
Duration : 1 h 36 min
Bit rate : 24.9 Mb/s
Width : 3 840 pixels
Height : 2 160 pixels
Display aspect ratio : 16:9
Frame rate mode : Constant
Frame rate : 23.976 (24000/1001) FPS
Color space : YUV
Chroma subsampling : 4:2:0
Bit depth : 10 bits
Bits/(Pixel*Frame) : 0.125
Stream size : 16.8 GiB (84%)
Default : Yes
Forced : No

Audio #1
ID : 2
Format : DTS XLL
Format/Info : Digital Theater Systems
Commercial name : DTS-HD Master Audio
Codec ID : A_DTS
Duration : 1 h 36 min
Bit rate mode : Variable
Bit rate : 3 806 kb/s
Channel(s) : 6 channels
Channel layout : C L R Ls Rs LFE
Sampling rate : 48.0 kHz
Frame rate : 93.750 FPS (512 SPF)
Bit depth : 24 bits
Compression mode : Lossless
Stream size : 2.57 GiB (13%)
Title : Surround Upmix / DTS-HD Master Audio / 5.1 / 48 kHz / 3806 kbps / 24-bit
Language : English
Default : Yes
Forced : No

Audio #2
ID : 3
Format : E-AC-3
Format/Info : Enhanced AC-3
Commercial name : Dolby Digital Plus
Codec ID : A_EAC3
Duration : 1 h 36 min
Bit rate mode : Constant
Bit rate : 640 kb/s
Channel(s) : 6 channels
Channel layout : L R C LFE Ls Rs
Sampling rate : 48.0 kHz
Frame rate : 31.250 FPS (1536 SPF)
Compression mode : Lossy
Stream size : 443 MiB (2%)
Language : English
Service kind : Complete Main
Default : No
Forced : No

Audio #3
ID : 4
Format : AC-3
Format/Info : Audio Coding 3
Commercial name : Dolby Digital
Format settings : Dolby Surround
Codec ID : A_AC3
Duration : 1 h 36 min
Bit rate mode : Constant
Bit rate : 192 kb/s
Channel(s) : 2 channels
Channel layout : L R
Sampling rate : 48.0 kHz
Frame rate : 31.250 FPS (1536 SPF)
Compression mode : Lossy
Stream size : 133 MiB (1%)
Title : Original Stereo / Dolby Digital Audio / 2.0 / 48 kHz / 192 kbps
Language : English
Service kind : Complete Main
Default : No
Forced : No

Text #1
ID : 5
Format : UTF-8
Codec ID : S_TEXT/UTF8
Codec ID/Info : UTF-8 Plain Text
Duration : 1 h 32 min
Bit rate : 80 b/s
Frame rate : 0.310 FPS
Count of elements : 1727
Stream size : 55.0 KiB (0%)
Title : English CC
Language : English
Default : Yes
Forced : No

Text #2
ID : 6
Format : UTF-8
Codec ID : S_TEXT/UTF8
Codec ID/Info : UTF-8 Plain Text
Duration : 1 h 30 min
Bit rate : 60 b/s
Frame rate : 0.182 FPS
Count of elements : 990
Stream size : 40.2 KiB (0%)
Title : Danish
Language : Danish
Default : No
Forced : No

Text #3
ID : 7
Format : UTF-8
Codec ID : S_TEXT/UTF8
Codec ID/Info : UTF-8 Plain Text
Duration : 1 h 30 min
Bit rate : 56 b/s
Frame rate : 0.182 FPS
Count of elements : 990
Stream size : 37.2 KiB (0%)
Title : German
Language : German
Default : No
Forced : No

Text #4
ID : 8
Format : UTF-8
Codec ID : S_TEXT/UTF8
Codec ID/Info : UTF-8 Plain Text
Duration : 1 h 34 min
Bit rate : 65 b/s
Frame rate : 0.248 FPS
Count of elements : 1412
Stream size : 45.4 KiB (0%)
Title : Spanish Latin American
Language : Spanish
Default : No
Forced : No

Text #5
ID : 9
Format : UTF-8
Codec ID : S_TEXT/UTF8
Codec ID/Info : UTF-8 Plain Text
Duration : 1 h 31 min
Bit rate : 53 b/s
Frame rate : 0.181 FPS
Count of elements : 993
Stream size : 35.9 KiB (0%)
Title : Spanish European
Language : Spanish
Default : No
Forced : No

Text #6
ID : 10
Format : UTF-8
Codec ID : S_TEXT/UTF8
Codec ID/Info : UTF-8 Plain Text
Duration : 1 h 30 min
Bit rate : 60 b/s
Frame rate : 0.182 FPS
Count of elements : 990
Stream size : 40.1 KiB (0%)
Title : Finnish
Language : Finnish
Default : No
Forced : No

Text #7
ID : 11
Format : UTF-8
Codec ID : S_TEXT/UTF8
Codec ID/Info : UTF-8 Plain Text
Duration : 1 h 31 min
Bit rate : 54 b/s
Frame rate : 0.182 FPS
Count of elements : 997
Stream size : 36.5 KiB (0%)
Title : French European
Language : French
Default : No
Forced : No

Text #8
ID : 12
Format : UTF-8
Codec ID : S_TEXT/UTF8
Codec ID/Info : UTF-8 Plain Text
Duration : 1 h 30 min
Bit rate : 55 b/s
Frame rate : 0.183 FPS
Count of elements : 994
Stream size : 37.0 KiB (0%)
Title : Italian
Language : Italian
Default : No
Forced : No

Text #9
ID : 13
Format : UTF-8
Codec ID : S_TEXT/UTF8
Codec ID/Info : UTF-8 Plain Text
Duration : 1 h 30 min
Bit rate : 47 b/s
Frame rate : 0.176 FPS
Count of elements : 958
Stream size : 31.6 KiB (0%)
Title : Dutch
Language : Dutch
Default : No
Forced : No

Text #10
ID : 14
Format : UTF-8
Codec ID : S_TEXT/UTF8
Codec ID/Info : UTF-8 Plain Text
Duration : 1 h 30 min
Bit rate : 59 b/s
Frame rate : 0.187 FPS
Count of elements : 1014
Stream size : 39.2 KiB (0%)
Title : Norwegian
Language : Norwegian
Default : No
Forced : No

Text #11
ID : 15
Format : UTF-8
Codec ID : S_TEXT/UTF8
Codec ID/Info : UTF-8 Plain Text
Duration : 1 h 31 min
Bit rate : 66 b/s
Frame rate : 0.259 FPS
Count of elements : 1420
Stream size : 44.5 KiB (0%)
Title : Portuguese Brazilian
Language : Portuguese
Default : No
Forced : No

Text #12
ID : 16
Format : UTF-8
Codec ID : S_TEXT/UTF8
Codec ID/Info : UTF-8 Plain Text
Duration : 1 h 34 min
Bit rate : 142 b/s
Frame rate : 0.212 FPS
Count of elements : 1207
Stream size : 99.2 KiB (0%)
Title : Thai
Language : Thai
Default : No
Forced : No

Menu
00:00:00.000 : en:Studio Logos
00:00:12.000 : en:Andie & Jack Start the Day, Opening Credits
00:03:32.000 : en:Andie & Duckie Talk
00:05:01.000 : en:Andie Gets Picked on for Being Poor
00:06:29.000 : en:Steff Hassles Andie
00:07:23.000 : en:Andie Works at Trax
00:11:47.000 : en:Andie Talks to Her Friends
00:13:12.000 : en:Andie & Duckie Drive Home
00:15:59.000 : en:Jack Gives Duckie Advice
00:19:40.000 : en:Andie Talks to Blane & Duckie
00:22:24.000 : en:Andie Listens to Her Answering Machine
00:23:31.000 : en:Jack Surprises Andie
00:24:51.000 : en:Andie & Blane Talk
00:27:46.000 : en:Andie & Duckie Talk
00:31:34.000 : en:The Girls Get Catty
00:33:18.000 : en:Andie Talks to the Principal
00:36:02.000 : enuckie Performs
00:39:00.000 : en:Blane Picks Andie Up
00:42:03.000 : en:Andie & Blane Talk
00:43:19.000 : enuckie Mopes
00:43:48.000 : en:Andie & Blane Go to a Party
00:45:46.000 : en:The Richies Are Rude
00:48:46.000 : en:Andie & Blane Go to Cats
00:53:01.000 : en:Andie & Blane Talk
00:55:58.000 : en:Andie & Jack Talk
00:58:17.000 : en:Andie & Iona Talk
01:01:16.000 : en:Iona's Relives Prom
01:03:30.000 : en:Blane & Steff Talk
01:05:17.000 : en:Andie & Blane Go on a Date
01:07:44.000 : enuckie Mopes/Andies Goes Shopping
01:09:10.000 : en:Jack Surprises Andie
01:11:31.000 : en:Andie & Jack Have a Heart-to-Heart
01:15:06.000 : en:Andie Confronts Blane
01:18:39.000 : enuckie Defends Andie
01:19:51.000 : en:Andie Visits Iona
01:23:09.000 : en:Andie Gets Ready for Prom
01:25:21.000 : en:Andie Goes to Prom
01:28:41.000 : en:Everyone is at Prom
01:32:41.000 : en:Andie & Blane Reconcile
01:33:21.000 : en:End Credits


资源速度为零或资源敏感被和谐时,推荐使用qBittorrent等下载软件,有条件的推荐115更好的下载软件!

下载地址:


游客,如果您要查看本帖隐藏内容请回复

游客,如果您要查看本帖隐藏内容请回复

游客,如果您要查看本帖隐藏内容请回复

游客,如果您要查看本帖隐藏内容请回复



相关其他4K高清版本链接:红粉佳人 / Pretty in Pink (1986) 4K高清版本下载





上一篇:过度剂量[简繁中字] / Overdose (2022) 4K高清版本下载
下一篇:监视者 / Watcher (2022) 4K高清版本下载
回复

使用道具 举报

54

主题

1593

帖子

4570

积分

4K家园VIP

Rank: 9Rank: 9Rank: 9

积分
4570
发表于 2022-11-7 12:37:28 来自手机 | 显示全部楼层
4K家园资源最近貌似越来越多了
回复 支持 反对

使用道具 举报

2

主题

1203

帖子

3629

积分

4K家园VIP

Rank: 9Rank: 9Rank: 9

积分
3629
发表于 2022-11-7 12:37:28 | 显示全部楼层
顶顶更健康
回复 支持 反对

使用道具 举报

0

主题

1749

帖子

4799

积分

4K家园VIP

Rank: 9Rank: 9Rank: 9

积分
4799
发表于 2022-11-8 10:52:37 | 显示全部楼层
正好需要啊
回复 支持 反对

使用道具 举报

28

主题

1295

帖子

3903

积分

4K家园VIP

Rank: 9Rank: 9Rank: 9

积分
3903
发表于 2022-11-8 12:30:41 | 显示全部楼层
鄙视楼下的顶帖没我快,哈哈
回复 支持 反对

使用道具 举报

主题

帖子

0

积分

新手上路

Rank: 1

积分
0
发表于 2022-11-9 10:21:26 | 显示全部楼层
希望这种资源越多越好
回复 支持 反对

使用道具 举报

0

主题

1771

帖子

4921

积分

4K家园VIP

Rank: 9Rank: 9Rank: 9

积分
4921
发表于 2022-11-10 12:56:09 来自手机 | 显示全部楼层
前排,哇咔咔
回复 支持 反对

使用道具 举报

3

主题

1249

帖子

3761

积分

4K家园VIP

Rank: 9Rank: 9Rank: 9

积分
3761
发表于 2022-11-10 23:55:12 | 显示全部楼层
边撸边过
回复 支持 反对

使用道具 举报

您需要登录后才可以回帖 登录 | 立即注册

本版积分规则

精彩图文
Archiver|手机版|TAG|Sitemap|新帖|专题|联系我们:邮箱: 4kjia.com@gmail.com   

4k家园   ©2019