[4K电影] 监视者 / Watcher (2022) 4K高清版本下载

[复制链接]

主题

帖子

0

积分

超级版主

Rank: 8Rank: 8

积分
0
 楼主| 发表于 2022-11-7 12:46:14 | 显示全部楼层 |阅读模式
本帖最后由 最爱4K哟 于 2022-11-7 12:47 编辑

142606ug838km3vr6u8r65.png

◎译  名 监视者
◎片  名 Watcher
◎年  代 2022
◎产  地 阿联酋 / 美国
◎类  别 剧情 / 惊悚
◎语  言 英语 / 罗马尼亚语
◎上映日期 2022-01-21(圣丹斯电影节) / 2022-06-03(美国)
◎IMDb评分  6.3/10 from 21844 users 更新 : 2022-11-06
◎IMDb链接  https://www.imdb.com/title/tt12004038/
◎豆瓣评分 6.3/10 from 5443 users 更新 : 2022-11-07
◎豆瓣链接 https://movie.douban.com/subject/35410155/
◎片  长 91 分钟
◎导  演 科洛·奥野 Chloe Okuno
◎编  剧 扎克·福特 Zack Ford / 科洛·奥野 Chloe Okuno
◎主  演 麦卡·梦露 Maika Monroe
       卡尔·格洛斯曼 Karl Glusman
       伯恩·戈曼 Burn Gorman
       都铎·佩特鲁特 Tudor Petrut
       加布里埃拉·布图克 Gabriela Butuc
       马达莉娜·阿内亚 Madalina Anea
       克里斯蒂娜·德莱努 Cristina Deleanu
       博格丹·法尔卡什 Bogdan Farcas
       丹尼尔·努塔 Daniel Nuta
       约阿娜·阿布尔 Ioana Abur
       弗拉维·克里桑 Flaviu Crisan
       斯蒂芬·扬库 Stefan Iancu
       弗洛里安·金普 Florian Ghimpu
       卢西安·约内斯库 Lucian Ionescu
       拉杜·布内斯库 Radu Bunescu
       伊奥纳特·格拉玛 Ionut Grama



◎简  介


         一名年轻女子和她的未婚夫搬进了一套新公寓,却被隔壁大楼里一个陌生人监视的感觉折磨着。

Video
ID : 1
Format : HEVC
Format/Info : High Efficiency Video Coding
Format profile : Main 10@L5@High
HDR format : SMPTE ST 2086, HDR10 compatible
Codec ID : V_MPEGH/ISO/HEVC
Duration : 1 h 36 min
Bit rate : 23.9 Mb/s
Width : 3 836 pixels
Height : 1 914 pixels
Display aspect ratio : 2.004
Frame rate mode : Constant
Frame rate : 23.976 (24000/1001) FPS
Color space : YUV
Chroma subsampling : 4:2:0 (Type 2)
Bit depth : 10 bits
Bits/(Pixel*Frame) : 0.136
Stream size : 16.1 GiB (85%)
Default : Yes
Forced : No
Color range : Limited
Color primaries : BT.2020
Transfer characteristics : PQ
Matrix coefficients : BT.2020 non-constant
Mastering display color primaries : Display P3
Mastering display luminance : min: 0.0050 cd/m2, max: 1000 cd/m2
Maximum Content Light Level : 998 cd/m2
Maximum Frame-Average Light Level : 65 cd/m2

Audio #1
ID : 2
ID in the original source medium : 4352 (0x1100)
Format : DTS XLL
Format/Info : Digital Theater Systems
Commercial name : DTS-HD Master Audio
Codec ID : A_DTS
Duration : 1 h 36 min
Bit rate mode : Variable
Bit rate : 3 741 kb/s
Channel(s) : 6 channels
Channel layout : C L R Ls Rs LFE
Sampling rate : 48.0 kHz
Frame rate : 93.750 FPS (512 SPF)
Bit depth : 24 bits
Compression mode : Lossless
Delay relative to video : 2 s 900 ms
Stream size : 2.51 GiB (13%)
Language : English
Default : Yes
Forced : No
Original source medium : Blu-ray

Audio #2
ID : 3
Format : AC-3
Format/Info : Audio Coding 3
Commercial name : Dolby Digital
Codec ID : A_AC3
Duration : 1 h 36 min
Bit rate mode : Constant
Bit rate : 384 kb/s
Channel(s) : 6 channels
Channel layout : L R C LFE Ls Rs
Sampling rate : 48.0 kHz
Frame rate : 31.250 FPS (1536 SPF)
Compression mode : Lossy
Stream size : 264 MiB (1%)
Language : English
Service kind : Complete Main
Default : Yes
Forced : No

Text #1
ID : 4
Format : UTF-8
Codec ID : S_TEXT/UTF8
Codec ID/Info : UTF-8 Plain Text
Duration : 1 h 35 min
Bit rate : 36 b/s
Frame rate : 0.166 FPS
Count of elements : 955
Stream size : 25.3 KiB (0%)
Title : English
Language : English
Default : Yes
Forced : No

Text #2
ID : 5
Format : UTF-8
Codec ID : S_TEXT/UTF8
Codec ID/Info : UTF-8 Plain Text
Duration : 1 h 29 min
Bit rate : 41 b/s
Frame rate : 0.104 FPS
Count of elements : 560
Stream size : 27.1 KiB (0%)
Title : Arabic
Language : Arabic
Default : No
Forced : No

Text #3
ID : 6
Format : UTF-8
Codec ID : S_TEXT/UTF8
Codec ID/Info : UTF-8 Plain Text
Duration : 1 h 29 min
Bit rate : 38 b/s
Frame rate : 0.100 FPS
Count of elements : 541
Stream size : 25.2 KiB (0%)
Title : Bulgarian
Language : Bulgarian
Default : No
Forced : No

Text #4
ID : 7
Format : UTF-8
Codec ID : S_TEXT/UTF8
Codec ID/Info : UTF-8 Plain Text
Duration : 1 h 34 min
Bit rate : 21 b/s
Frame rate : 0.096 FPS
Count of elements : 544
Stream size : 14.8 KiB (0%)
Title : Czech
Language : Czech
Default : No
Forced : No

Text #5
ID : 8
Format : UTF-8
Codec ID : S_TEXT/UTF8
Codec ID/Info : UTF-8 Plain Text
Duration : 1 h 34 min
Bit rate : 23 b/s
Frame rate : 0.093 FPS
Count of elements : 529
Stream size : 16.5 KiB (0%)
Title : Danish
Language : Danish
Default : No
Forced : No

Text #6
ID : 9
Format : UTF-8
Codec ID : S_TEXT/UTF8
Codec ID/Info : UTF-8 Plain Text
Duration : 1 h 34 min
Bit rate : 23 b/s
Frame rate : 0.099 FPS
Count of elements : 560
Stream size : 16.4 KiB (0%)
Title : German
Language : German
Default : No
Forced : No

Text #7
ID : 10
Format : UTF-8
Codec ID : S_TEXT/UTF8
Codec ID/Info : UTF-8 Plain Text
Duration : 1 h 34 min
Bit rate : 38 b/s
Frame rate : 0.099 FPS
Count of elements : 563
Stream size : 26.7 KiB (0%)
Title : Greek
Language : Greek
Default : No
Forced : No

Text #8
ID : 11
Format : UTF-8
Codec ID : S_TEXT/UTF8
Codec ID/Info : UTF-8 Plain Text
Duration : 1 h 34 min
Bit rate : 22 b/s
Frame rate : 0.099 FPS
Count of elements : 562
Stream size : 15.8 KiB (0%)
Title : Spanish European
Language : Spanish
Default : No
Forced : No

Text #9
ID : 12
Format : UTF-8
Codec ID : S_TEXT/UTF8
Codec ID/Info : UTF-8 Plain Text
Duration : 1 h 34 min
Bit rate : 23 b/s
Frame rate : 0.099 FPS
Count of elements : 560
Stream size : 16.3 KiB (0%)
Title : Finnish
Language : Finnish
Default : No
Forced : No

Text #10
ID : 13
Format : UTF-8
Codec ID : S_TEXT/UTF8
Codec ID/Info : UTF-8 Plain Text
Duration : 1 h 34 min
Bit rate : 23 b/s
Frame rate : 0.094 FPS
Count of elements : 534
Stream size : 16.3 KiB (0%)
Title : French European
Language : French
Default : No
Forced : No

Text #11
ID : 14
Format : UTF-8
Codec ID : S_TEXT/UTF8
Codec ID/Info : UTF-8 Plain Text
Duration : 1 h 34 min
Bit rate : 37 b/s
Frame rate : 0.100 FPS
Count of elements : 565
Stream size : 26.2 KiB (0%)
Title : Hebrew
Language : Hebrew
Default : No
Forced : No

Text #12
ID : 15
Format : UTF-8
Codec ID : S_TEXT/UTF8
Codec ID/Info : UTF-8 Plain Text
Duration : 1 h 34 min
Bit rate : 65 b/s
Frame rate : 0.105 FPS
Count of elements : 596
Stream size : 45.2 KiB (0%)
Title : Hindi
Language : Hindi
Default : No
Forced : No

Text #13
ID : 16
Format : UTF-8
Codec ID : S_TEXT/UTF8
Codec ID/Info : UTF-8 Plain Text
Duration : 1 h 34 min
Bit rate : 21 b/s
Frame rate : 0.099 FPS
Count of elements : 561
Stream size : 14.9 KiB (0%)
Title : Croatian
Language : Croatian
Default : No
Forced : No

Text #14
ID : 17
Format : UTF-8
Codec ID : S_TEXT/UTF8
Codec ID/Info : UTF-8 Plain Text
Duration : 1 h 34 min
Bit rate : 23 b/s
Frame rate : 0.099 FPS
Count of elements : 565
Stream size : 16.1 KiB (0%)
Title : Hungarian
Language : Hungarian
Default : No
Forced : No

Text #15
ID : 18
Format : UTF-8
Codec ID : S_TEXT/UTF8
Codec ID/Info : UTF-8 Plain Text
Duration : 1 h 34 min
Bit rate : 24 b/s
Frame rate : 0.099 FPS
Count of elements : 562
Stream size : 16.9 KiB (0%)
Title : Indonesian
Language : Indonesian
Default : No
Forced : No

Text #16
ID : 19
Format : UTF-8
Codec ID : S_TEXT/UTF8
Codec ID/Info : UTF-8 Plain Text
Duration : 1 h 34 min
Bit rate : 23 b/s
Frame rate : 0.104 FPS
Count of elements : 591
Stream size : 16.6 KiB (0%)
Title : Italian
Language : Italian
Default : No
Forced : No

Text #17
ID : 20
Format : UTF-8
Codec ID : S_TEXT/UTF8
Codec ID/Info : UTF-8 Plain Text
Duration : 1 h 34 min
Bit rate : 29 b/s
Frame rate : 0.100 FPS
Count of elements : 567
Stream size : 20.2 KiB (0%)
Title : Korean
Language : Korean
Default : No
Forced : No

Text #18
ID : 21
Format : UTF-8
Codec ID : S_TEXT/UTF8
Codec ID/Info : UTF-8 Plain Text
Duration : 1 h 34 min
Bit rate : 21 b/s
Frame rate : 0.081 FPS
Count of elements : 457
Stream size : 15.0 KiB (0%)
Title : Dutch
Language : Dutch
Default : No
Forced : No

Text #19
ID : 22
Format : UTF-8
Codec ID : S_TEXT/UTF8
Codec ID/Info : UTF-8 Plain Text
Duration : 1 h 29 min
Bit rate : 23 b/s
Frame rate : 0.103 FPS
Count of elements : 554
Stream size : 15.6 KiB (0%)
Title : Norwegian
Language : Norwegian
Default : No
Forced : No

Text #20
ID : 23
Format : UTF-8
Codec ID : S_TEXT/UTF8
Codec ID/Info : UTF-8 Plain Text
Duration : 1 h 29 min
Bit rate : 23 b/s
Frame rate : 0.101 FPS
Count of elements : 547
Stream size : 15.3 KiB (0%)
Title : Polish
Language : Polish
Default : No
Forced : No

Text #21
ID : 24
Format : UTF-8
Codec ID : S_TEXT/UTF8
Codec ID/Info : UTF-8 Plain Text
Duration : 1 h 29 min
Bit rate : 23 b/s
Frame rate : 0.104 FPS
Count of elements : 563
Stream size : 15.4 KiB (0%)
Title : Portuguese Brazilian
Language : Portuguese
Default : No
Forced : No

Text #22
ID : 25
Format : UTF-8
Codec ID : S_TEXT/UTF8
Codec ID/Info : UTF-8 Plain Text
Duration : 1 h 29 min
Bit rate : 24 b/s
Frame rate : 0.104 FPS
Count of elements : 562
Stream size : 16.3 KiB (0%)
Title : Portuguese European
Language : Portuguese
Default : No
Forced : No

Text #23
ID : 26
Format : UTF-8
Codec ID : S_TEXT/UTF8
Codec ID/Info : UTF-8 Plain Text
Duration : 1 h 34 min
Bit rate : 41 b/s
Frame rate : 0.102 FPS
Count of elements : 582
Stream size : 28.8 KiB (0%)
Title : Russian
Language : Russian
Default : No
Forced : No

Text #24
ID : 27
Format : UTF-8
Codec ID : S_TEXT/UTF8
Codec ID/Info : UTF-8 Plain Text
Duration : 1 h 29 min
Bit rate : 22 b/s
Frame rate : 0.104 FPS
Count of elements : 563
Stream size : 15.1 KiB (0%)
Title : Slovak
Language : Slovak
Default : No
Forced : No

Text #25
ID : 28
Format : UTF-8
Codec ID : S_TEXT/UTF8
Codec ID/Info : UTF-8 Plain Text
Duration : 1 h 29 min
Bit rate : 19 b/s
Frame rate : 0.079 FPS
Count of elements : 428
Stream size : 12.7 KiB (0%)
Title : Slovenian
Language : Slovenian
Default : No
Forced : No

Text #26
ID : 29
Format : UTF-8
Codec ID : S_TEXT/UTF8
Codec ID/Info : UTF-8 Plain Text
Duration : 1 h 29 min
Bit rate : 24 b/s
Frame rate : 0.091 FPS
Count of elements : 489
Stream size : 16.4 KiB (0%)
Title : Swedish
Language : Swedish
Default : No
Forced : No

Text #27
ID : 30
Format : UTF-8
Codec ID : S_TEXT/UTF8
Codec ID/Info : UTF-8 Plain Text
Duration : 1 h 34 min
Bit rate : 23 b/s
Frame rate : 0.100 FPS
Count of elements : 566
Stream size : 16.4 KiB (0%)
Title : Turkish
Language : Turkish
Default : No
Forced : No

Text #28
ID : 31
Format : UTF-8
Codec ID : S_TEXT/UTF8
Codec ID/Info : UTF-8 Plain Text
Duration : 1 h 29 min
Bit rate : 40 b/s
Frame rate : 0.106 FPS
Count of elements : 570
Stream size : 26.9 KiB (0%)
Title : Ukrainian
Language : Ukrainian
Default : No
Forced : No

Menu
00:00:00.000 : en:Chapter 01
00:07:19.856 : en:Chapter 02
00:14:51.224 : en:Chapter 03
00:21:30.540 : en:Chapter 04
00:28:34.172 : en:Chapter 05
00:35:33.049 : en:Chapter 06
00:43:29.526 : en:Chapter 07
00:50:14.556 : en:Chapter 08
00:59:03.335 : en:Chapter 09
01:07:01.938 : en:Chapter 10
01:14:01.066 : en:Chapter 11
01:21:46.156 : en:Chapter 12
01:29:19.984 : en:Chapter 13

资源速度为零或资源敏感被和谐时,推荐使用qBittorrent等下载软件,有条件的推荐115更好的下载软件!

下载地址:


游客,如果您要查看本帖隐藏内容请回复



相关其他版本链接:监视者 / Watcher (2022) 4K高清版本下载



上一篇:红粉佳人 / Pretty in Pink (1986) 4K高清版本下载
下一篇:饮料杯历险记:植物英雄 (2022) 4K高清版本下载
回复

使用道具 举报

1

主题

1393

帖子

4207

积分

4K家园VIP

Rank: 9Rank: 9Rank: 9

积分
4207
发表于 2022-11-7 12:46:18 | 显示全部楼层
顶起顶起顶起
回复 支持 反对

使用道具 举报

您需要登录后才可以回帖 登录 | 立即注册

本版积分规则

精彩图文
Archiver|手机版|TAG|Sitemap|新帖|专题|联系我们:邮箱: 4kjia.com@gmail.com   

4k家园   ©2019