[4K电影] 饮料杯历险记:植物英雄 (2022) 4K高清版本下载

[复制链接]

主题

帖子

0

积分

超级版主

Rank: 8Rank: 8

积分
0
 楼主| 发表于 2022-11-7 20:01:01 | 显示全部楼层 |阅读模式
本帖最后由 最爱4K哟 于 2022-11-7 20:34 编辑

QQ图片20221107202705_副本.png

◎标  题 饮料杯历险记:植物英雄
◎片  名 Aqua Teen Forever: Plantasm
◎年  代 2022
◎产  地 美国
◎类  别 剧情 / 动画
◎语  言 英语
◎上映日期 2022-11-08(美国网络)
◎IMDb评分 0/10 from 0 users
◎IMDb链接 https://www.imdb.com/title/tt14636190/
◎豆瓣评分 0/10 from 0 users
◎豆瓣链接 https://movie.douban.com/subject/36109451/
◎片  长 75 分钟
◎导  演 戴夫·威利斯 Dave Willis
◎编  剧 戴夫·威利斯 Dave Willis
◎演  员 保罗·沃尔特·豪泽 Paul Walter Hauser
       彼得·塞拉菲诺威茨 Peter Serafinowicz
       娜塔莎·罗斯韦尔 Natasha Rothwell
       蒂姆·罗宾逊 Tim Robinson
       达纳·斯耐德 Dana Snyder
       罗伯特·斯密戈尔 Robert Smigel
       戴夫·威利斯 Dave Willis
       乔·费尔斯通 Jo Firestone
       欧韦尔利·罗奇 Ukweli Roach


◎简  介


  接下来会发生什么呢?Frylock、Meatwad和Master Shake,他们认为自己是犯罪斗士,但事实是他们从不与犯罪作斗争。

Video
ID : 1
Format : HEVC
Format/Info : High Efficiency Video Coding
Format profile : Main 10@L5@High
Codec ID : V_MPEGH/ISO/HEVC
Duration : 1 h 15 min
Bit rate : 11.4 Mb/s
Width : 3 838 pixels
Height : 2 158 pixels
Display aspect ratio : 16:9
Frame rate mode : Constant
Frame rate : 23.976 FPS
Color space : YUV
Chroma subsampling : 4:2:0
Bit depth : 10 bits
Bits/(Pixel*Frame) : 0.058
Stream size : 6.05 GiB (97%)
Default : Yes
Forced : No
Color range : Limited
Color primaries : BT.709
Transfer characteristics : BT.709
Matrix coefficients : BT.709

Audio
ID : 2
Format : AC-3
Format/Info : Audio Coding 3
Commercial name : Dolby Digital
Codec ID : A_AC3
Duration : 1 h 15 min
Bit rate mode : Constant
Bit rate : 384 kb/s
Channel(s) : 6 channels
Channel layout : L R C LFE Ls Rs
Sampling rate : 48.0 kHz
Frame rate : 31.250 FPS (1536 SPF)
Compression mode : Lossy
Stream size : 208 MiB (3%)
Language : English
Service kind : Complete Main
Default : Yes
Forced : No

Text
ID : 3
Format : UTF-8
Codec ID : S_TEXT/UTF8
Codec ID/Info : UTF-8 Plain Text
Duration : 1 h 15 min
Bit rate : 113 b/s
Frame rate : 0.391 FPS
Count of elements : 1764
Stream size : 62.6 KiB (0%)
Language : English
Default : Yes
Forced : No

资源速度为零或资源敏感被和谐时,推荐使用qBittorrent等下载软件,有条件的推荐115更好的下载软件!

下载地址:


游客,如果您要查看本帖隐藏内容请回复







上一篇:监视者 / Watcher (2022) 4K高清版本下载
下一篇:福尔摩斯小姐:伦敦厄运[简繁中字] (2022) 4K高清版本下载
回复

使用道具 举报

5

主题

1418

帖子

4096

积分

4K家园VIP

Rank: 9Rank: 9Rank: 9

积分
4096
发表于 2022-11-7 20:01:04 | 显示全部楼层
不错 支持一个了
回复 支持 反对

使用道具 举报

30

主题

1337

帖子

4033

积分

4K家园VIP

Rank: 9Rank: 9Rank: 9

积分
4033
发表于 2022-11-8 02:22:40 | 显示全部楼层
支持下楼主,顶一个
回复 支持 反对

使用道具 举报

2

主题

1731

帖子

4811

积分

4K家园VIP

Rank: 9Rank: 9Rank: 9

积分
4811
发表于 2022-11-8 04:12:15 | 显示全部楼层
为保住菊花,这个一定得回复!
回复 支持 反对

使用道具 举报

2

主题

1665

帖子

4595

积分

4K家园VIP

Rank: 9Rank: 9Rank: 9

积分
4595
发表于 2022-11-8 11:06:39 | 显示全部楼层
不错 支持一个了
回复 支持 反对

使用道具 举报

1

主题

1472

帖子

4272

积分

4K家园VIP

Rank: 9Rank: 9Rank: 9

积分
4272
发表于 2022-11-8 15:15:11 来自手机 | 显示全部楼层
这个资源我记得是一套的,楼主还有没有
回复 支持 反对

使用道具 举报

1

主题

1655

帖子

4607

积分

4K家园VIP

Rank: 9Rank: 9Rank: 9

积分
4607
发表于 2022-11-10 13:59:57 | 显示全部楼层
回复 支持 反对

使用道具 举报

主题

帖子

0

积分

新手上路

Rank: 1

积分
0
发表于 2022-12-1 15:51:06 | 显示全部楼层
回复

使用道具 举报

您需要登录后才可以回帖 登录 | 立即注册

本版积分规则

精彩图文
Archiver|手机版|TAG|Sitemap|新帖|专题|联系我们:邮箱: 4kjia.com@gmail.com   

4k家园   ©2019