[4K电影] 福尔摩斯小姐:伦敦厄运[简繁中字] (2022) 4K高清版本下载

[复制链接]

主题

帖子

0

积分

超级版主

Rank: 8Rank: 8

积分
0
 楼主| 发表于 2022-11-7 20:08:43 | 显示全部楼层 |阅读模式
本帖最后由 没完没了 于 2022-11-24 09:50 编辑

QQ图片20221107202903_副本.png

◎标  题 福尔摩斯小姐2
◎译  名 天才少女福尔摩斯2
◎片  名 Enola Holmes 2
◎年  代 2022
◎产  地 英国 / 美国
◎类  别 剧情 / 动作 / 悬疑 / 犯罪 / 冒险
◎语  言 英语
◎上映日期 2022-11-04(美国网络)
◎IMDb评分 6.9/10 from 17360 users 更新 : 2022-11-07
◎IMDb链接 https://www.imdb.com/title/tt14641788/
◎豆瓣评分 0/10 from 0 users
◎豆瓣链接 https://movie.douban.com/subject/35461749/
◎片  长 129分钟
◎导  演 哈利·布拉德比尔 Harry Bradbeer
◎编  剧 杰克·索恩 Jack Thorne /  哈利·布拉德比尔 Harry Bradbeer / 南茜·斯普林格 Nancy Springer
◎演  员 米莉·波比·布朗 Millie Bobby Brown
       亨利·卡维尔 Henry Cavill
       海伦娜·伯翰·卡特 Helena Bonham Carter
       大卫·休里斯 David Thewlis
       路易斯·帕特里奇 Louis Partridge
       苏珊·沃卡曼 Susan Wokoma
       阿迪勒·阿赫塔尔 Adeel Akhtar
       莎伦·邓肯-布鲁斯特 Sharon Duncan-Brewster
       汉娜·多德 Hannah Dodd
       大卫·维斯特海德 David Westhead
       蕾切尔·郭 Rachel Kwok
       克洛伊·布耶斯 Chloé Booyens
       艾比·赫恩 Abbie Hern
       瑟拉娜·苏玲·布利斯 Serrana Su-Ling Bliss
       拉姆赞·米亚 Ramzan Miah
       皮埃尔·伯格曼 Pierre Bergman
       罗伊辛·莫纳汉 Róisín Monaghan
       加布里埃尔·蒂尔尼 Gabriel Tierney
       菲利普·加斯科因 Philip Gascoyne
       海伦·斯特灵-洛那 Helen Stirling-Lane
       马汀·麦格 Martyn Mayger
       伊丽莎白·希尔 伊丽莎白·希尔
       詹姆斯·伯克里 James Berkery
       卡里什马·纳维卡 Karishma Navekar
       艾莉森·马丁·琼斯 Alison Martin Jones
       索莱塔·博伊尔 Consolata Boyle


◎简  介

  大胆去闯,就是福尔摩斯精神。
初尝破案滋味的艾诺拉·福尔摩斯(米莉·波比·布朗 Millie Bobby Brown 饰)意犹未尽,决定追随哥哥、名侦探夏洛克·福尔摩斯(亨利·卡维尔 Henry Cavill 饰)的步伐,设立自己的侦探社。她万万想不到,原来女侦探生意这么难做。她无可奈何地接受成人世 界的冷酷现实,打算关门大吉之际,身无分文的卖火柴女孩却找上门来。艾诺拉终于接到第一宗生意,受托为女孩寻回失散的姊妹。然而,这案件比她想像中复杂得多,艾诺拉更因此走进陌生之地,陷入险境。她去过伦敦阴森诡秘的工厂和绚丽堂皇的音乐厅,混入顶尖上流社会,甚至回到贝克街221B。艾诺拉意识到一场流血阴谋将要爆发,不得不急召朋友和哥哥夏洛克帮忙,助她脱离困局。这场侦探游戏又再刺激起来!

Video
ID : 1
Format : HEVC
Format/Info : High Efficiency Video Coding
Format profile : Main 10@L5.1@High
HDR format : SMPTE ST 2086, HDR10 compatible
Codec ID : V_MPEGH/ISO/HEVC
Duration : 2 h 4 min
Bit rate : 12.6 Mb/s
Width : 3 840 pixels
Height : 1 604 pixels
Display aspect ratio : 2.40:1
Frame rate mode : Constant
Frame rate : 24.000 FPS
Color space : YUV
Chroma subsampling : 4:2:0
Bit depth : 10 bits
Bits/(Pixel*Frame) : 0.085
Stream size : 10.9 GiB (94%)
Writing library : x265 3.5+40-0b75c44c1:[Windows][MSVC 1933][64 bit] 10bit
Encoding settings : cpuid=1111039 / frame-threads=4 / numa-pools=28,0 / wpp / no-pmode / no-pme / no-psnr / no-ssim / log-level=2 / input-csp=1 / input-res=3840x1604 / interlace=0 / total-frames=0 / level-idc=51 / high-tier=1 / uhd-bd=0 / ref=5 / no-allow-non-conformance / repeat-headers / annexb / aud / no-eob / no-eos / hrd / info / hash=0 / no-temporal-layers / open-gop / min-keyint=24 / keyint=250 / gop-lookahead=0 / bframes=8 / b-adapt=2 / b-pyramid / bframe-bias=0 / rc-lookahead=40 / lookahead-slices=8 / scenecut=40 / no-hist-scenecut / radl=0 / no-splice / no-intra-refresh / ctu=64 / min-cu-size=8 / no-rect / no-amp / max-tu-size=32 / tu-inter-depth=3 / tu-intra-depth=4 / limit-tu=0 / rdoq-level=0 / dynamic-rd=0.00 / no-ssim-rd / signhide / no-tskip / nr-intra=0 / nr-inter=0 / no-constrained-intra / strong-intra-smoothing / max-merge=5 / limit-refs=0 / no-limit-modes / me=1 / subme=5 / merange=57 / temporal-mvp / no-frame-dup / no-hme / weightp / weightb / no-analyze-src-pics / deblock=-3:-3 / no-sao / no-sao-non-deblock / rd=4 / selective-sao=0 / early-skip / rskip / no-fast-intra / no-tskip-fast / no-cu-lossless / b-intra / no-splitrd-skip / rdpenalty=0 / psy-rd=2.00 / psy-rdoq=0.00 / no-rd-refine / no-lossless / cbqpoffs=0 / crqpoffs=0 / rc=crf / crf=18.0 / qcomp=0.60 / qpstep=4 / stats-write=0 / stats-read=0 / vbv-maxrate=160000 / vbv-bufsize=160000 / vbv-init=0.9 / min-vbv-fullness=50.0 / max-vbv-fullness=80.0 / crf-max=0.0 / crf-min=0.0 / ipratio=1.30 / pbratio=1.20 / aq-mode=3 / aq-strength=0.80 / no-cutree / zone-count=0 / no-strict-cbr / qg-size=32 / no-rc-grain / qpmax=69 / qpmin=0 / no-const-vbv / sar=1 / overscan=0 / videoformat=5 / range=0 / colorprim=9 / transfer=16 / colormatrix=9 / chromaloc=0 / display-window=0 / master-display=G(13250,34500)B(7500,3000)R(34000,16000)WP(15635,16450)L(10000000,1) / cll=756,242 / min-luma=0 / max-luma=1023 / log2-max-poc-lsb=8 / vui-timing-info / vui-hrd-info / slices=1 / no-opt-qp-pps / no-opt-ref-list-length-pps / no-multi-pass-opt-rps / scenecut-bias=0.05 / hist-threshold=0.03 / no-opt-cu-delta-qp / no-aq-motion / hdr10 / hdr10-opt / no-dhdr10-opt / no-idr-recovery-sei / analysis-reuse-level=0 / analysis-save-reuse-level=0 / analysis-load-reuse-level=0 / scale-factor=0 / refine-intra=0 / refine-inter=0 / refine-mv=1 / refine-ctu-distortion=0 / no-limit-sao / ctu-info=0 / no-lowpass-dct / refine-analysis-type=0 / copy-pic=1 / max-ausize-factor=1.0 / no-dynamic-refine / no-single-sei / no-hevc-aq / no-svt / no-field / qp-adaptation-range=1.00 / scenecut-aware-qp=0conformance-window-offsets / right=0 / bottom=0 / decoder-max-rate=0 / no-vbv-live-multi-pass
Default : Yes
Forced : No
Color range : Limited
Color primaries : BT.2020
Transfer characteristics : PQ
Matrix coefficients : BT.2020 non-constant
Mastering display color primaries : Display P3
Mastering display luminance : min: 0.0001 cd/m2, max: 1000 cd/m2
Maximum Content Light Level : 756 cd/m2
Maximum Frame-Average Light Level : 242 cd/m2

Audio
ID : 2
Format : E-AC-3 JOC
Format/Info : Enhanced AC-3 with Joint Object Coding
Commercial name : Dolby Digital Plus with Dolby Atmos
Codec ID : A_EAC3
Duration : 2 h 10 min
Bit rate mode : Constant
Bit rate : 768 kb/s
Channel(s) : 6 channels
Channel layout : L R C LFE Ls Rs
Sampling rate : 48.0 kHz
Frame rate : 31.250 FPS (1536 SPF)
Compression mode : Lossy
Stream size : 719 MiB (6%)
Language : English
Service kind : Complete Main
Default : Yes
Forced : No
Complexity index : 16
Number of dynamic objects : 15
Bed channel count : 1 channel
Bed channel configuration : LFE

Text #1
ID : 3
Format : UTF-8
Codec ID : S_TEXT/UTF8
Codec ID/Info : UTF-8 Plain Text
Duration : 2 h 8 min
Bit rate : 68 b/s
Frame rate : 0.281 FPS
Count of elements : 2169
Stream size : 64.1 KiB (0%)
Title : SDH
Language : English
Default : No
Forced : No

Text #2
ID : 4
Format : UTF-8
Codec ID : S_TEXT/UTF8
Codec ID/Info : UTF-8 Plain Text
Duration : 2 h 3 min
Bit rate : 55 b/s
Frame rate : 0.226 FPS
Count of elements : 1680
Stream size : 50.6 KiB (0%)
Language : English
Default : No
Forced : No

Text #3
ID : 5
Format : UTF-8
Codec ID : S_TEXT/UTF8
Codec ID/Info : UTF-8 Plain Text
Duration : 2 h 8 min
Bit rate : 98 b/s
Frame rate : 0.227 FPS
Count of elements : 1747
Stream size : 92.2 KiB (0%)
Language : Arabic
Default : No
Forced : No

Text #4
ID : 6
Format : UTF-8
Codec ID : S_TEXT/UTF8
Codec ID/Info : UTF-8 Plain Text
Duration : 2 h 8 min
Bit rate : 50 b/s
Frame rate : 0.219 FPS
Count of elements : 1690
Stream size : 47.2 KiB (0%)
Language : Catalan
Default : No
Forced : No

Text #5
ID : 7
Format : UTF-8
Codec ID : S_TEXT/UTF8
Codec ID/Info : UTF-8 Plain Text
Duration : 2 h 8 min
Bit rate : 50 b/s
Frame rate : 0.220 FPS
Count of elements : 1694
Stream size : 47.6 KiB (0%)
Language : Czech
Default : No
Forced : No

Text #6
ID : 8
Format : UTF-8
Codec ID : S_TEXT/UTF8
Codec ID/Info : UTF-8 Plain Text
Duration : 2 h 8 min
Bit rate : 51 b/s
Frame rate : 0.214 FPS
Count of elements : 1648
Stream size : 48.3 KiB (0%)
Language : Danish
Default : No
Forced : No

Text #7
ID : 9
Format : UTF-8
Codec ID : S_TEXT/UTF8
Codec ID/Info : UTF-8 Plain Text
Duration : 2 h 8 min
Bit rate : 54 b/s
Frame rate : 0.215 FPS
Count of elements : 1653
Stream size : 51.5 KiB (0%)
Language : German
Default : No
Forced : No

Text #8
ID : 10
Format : UTF-8
Codec ID : S_TEXT/UTF8
Codec ID/Info : UTF-8 Plain Text
Duration : 2 h 8 min
Bit rate : 84 b/s
Frame rate : 0.222 FPS
Count of elements : 1709
Stream size : 79.5 KiB (0%)
Language : Greek
Default : No
Forced : No

Text #9
ID : 11
Format : UTF-8
Codec ID : S_TEXT/UTF8
Codec ID/Info : UTF-8 Plain Text
Duration : 2 h 8 min
Bit rate : 51 b/s
Frame rate : 0.232 FPS
Count of elements : 1787
Stream size : 48.9 KiB (0%)
Language : Spanish
Default : No
Forced : No

Text #10
ID : 12
Format : UTF-8
Codec ID : S_TEXT/UTF8
Codec ID/Info : UTF-8 Plain Text
Duration : 2 h 8 min
Bit rate : 48 b/s
Frame rate : 0.222 FPS
Count of elements : 1707
Stream size : 45.4 KiB (0%)
Language : Basque
Default : No
Forced : No

Text #11
ID : 13
Format : UTF-8
Codec ID : S_TEXT/UTF8
Codec ID/Info : UTF-8 Plain Text
Duration : 2 h 8 min
Bit rate : 48 b/s
Frame rate : 0.201 FPS
Count of elements : 1551
Stream size : 45.7 KiB (0%)
Language : Finnish
Default : No
Forced : No

Text #12
ID : 14
Format : UTF-8
Codec ID : S_TEXT/UTF8
Codec ID/Info : UTF-8 Plain Text
Duration : 2 h 8 min
Bit rate : 51 b/s
Frame rate : 0.215 FPS
Count of elements : 1660
Stream size : 48.3 KiB (0%)
Language : fil
Default : No
Forced : No

Text #13
ID : 15
Format : UTF-8
Codec ID : S_TEXT/UTF8
Codec ID/Info : UTF-8 Plain Text
Duration : 2 h 8 min
Bit rate : 51 b/s
Frame rate : 0.219 FPS
Count of elements : 1685
Stream size : 48.7 KiB (0%)
Language : French
Default : No
Forced : No

Text #14
ID : 16
Format : UTF-8
Codec ID : S_TEXT/UTF8
Codec ID/Info : UTF-8 Plain Text
Duration : 2 h 8 min
Bit rate : 46 b/s
Frame rate : 0.220 FPS
Count of elements : 1696
Stream size : 43.8 KiB (0%)
Language : Galician
Default : No
Forced : No

Text #15
ID : 17
Format : UTF-8
Codec ID : S_TEXT/UTF8
Codec ID/Info : UTF-8 Plain Text
Duration : 2 h 3 min
Bit rate : 88 b/s
Frame rate : 0.233 FPS
Count of elements : 1733
Stream size : 79.9 KiB (0%)
Language : Hebrew
Default : No
Forced : No

Text #16
ID : 18
Format : UTF-8
Codec ID : S_TEXT/UTF8
Codec ID/Info : UTF-8 Plain Text
Duration : 2 h 8 min
Bit rate : 48 b/s
Frame rate : 0.214 FPS
Count of elements : 1650
Stream size : 45.5 KiB (0%)
Language : Croatian
Default : No
Forced : No

Text #17
ID : 19
Format : UTF-8
Codec ID : S_TEXT/UTF8
Codec ID/Info : UTF-8 Plain Text
Duration : 2 h 8 min
Bit rate : 53 b/s
Frame rate : 0.218 FPS
Count of elements : 1677
Stream size : 50.3 KiB (0%)
Language : Hungarian
Default : No
Forced : No

Text #18
ID : 20
Format : UTF-8
Codec ID : S_TEXT/UTF8
Codec ID/Info : UTF-8 Plain Text
Duration : 2 h 8 min
Bit rate : 50 b/s
Frame rate : 0.223 FPS
Count of elements : 1720
Stream size : 47.9 KiB (0%)
Language : Indonesian
Default : No
Forced : No

Text #19
ID : 21
Format : UTF-8
Codec ID : S_TEXT/UTF8
Codec ID/Info : UTF-8 Plain Text
Duration : 2 h 8 min
Bit rate : 52 b/s
Frame rate : 0.206 FPS
Count of elements : 1585
Stream size : 49.5 KiB (0%)
Language : Italian
Default : No
Forced : No

Text #20
ID : 22
Format : UTF-8
Codec ID : S_TEXT/UTF8
Codec ID/Info : UTF-8 Plain Text
Duration : 2 h 8 min
Bit rate : 54 b/s
Frame rate : 0.233 FPS
Count of elements : 1795
Stream size : 50.9 KiB (0%)
Language : Japanese
Default : No
Forced : No

Text #21
ID : 23
Format : UTF-8
Codec ID : S_TEXT/UTF8
Codec ID/Info : UTF-8 Plain Text
Duration : 2 h 8 min
Bit rate : 77 b/s
Frame rate : 0.225 FPS
Count of elements : 1735
Stream size : 72.6 KiB (0%)
Language : Korean
Default : No
Forced : No

Text #22
ID : 24
Format : UTF-8
Codec ID : S_TEXT/UTF8
Codec ID/Info : UTF-8 Plain Text
Duration : 2 h 8 min
Bit rate : 52 b/s
Frame rate : 0.220 FPS
Count of elements : 1698
Stream size : 49.0 KiB (0%)
Language : Malay
Default : No
Forced : No

Text #23
ID : 25
Format : UTF-8
Codec ID : S_TEXT/UTF8
Codec ID/Info : UTF-8 Plain Text
Duration : 2 h 8 min
Bit rate : 50 b/s
Frame rate : 0.212 FPS
Count of elements : 1630
Stream size : 47.4 KiB (0%)
Language : Norwegian Bokmal
Default : No
Forced : No

Text #24
ID : 26
Format : UTF-8
Codec ID : S_TEXT/UTF8
Codec ID/Info : UTF-8 Plain Text
Duration : 2 h 8 min
Bit rate : 48 b/s
Frame rate : 0.215 FPS
Count of elements : 1655
Stream size : 45.8 KiB (0%)
Language : Dutch
Default : No
Forced : No

Text #25
ID : 27
Format : UTF-8
Codec ID : S_TEXT/UTF8
Codec ID/Info : UTF-8 Plain Text
Duration : 2 h 8 min
Bit rate : 51 b/s
Frame rate : 0.219 FPS
Count of elements : 1690
Stream size : 48.4 KiB (0%)
Language : Polish
Default : No
Forced : No

Text #26
ID : 28
Format : UTF-8
Codec ID : S_TEXT/UTF8
Codec ID/Info : UTF-8 Plain Text
Duration : 2 h 8 min
Bit rate : 53 b/s
Frame rate : 0.220 FPS
Count of elements : 1695
Stream size : 50.7 KiB (0%)
Language : Portuguese
Default : No
Forced : No

Text #27
ID : 29
Format : UTF-8
Codec ID : S_TEXT/UTF8
Codec ID/Info : UTF-8 Plain Text
Duration : 2 h 8 min
Bit rate : 54 b/s
Frame rate : 0.221 FPS
Count of elements : 1705
Stream size : 51.6 KiB (0%)
Title : Brazilian
Language : Portuguese
Default : No
Forced : No

Text #28
ID : 30
Format : UTF-8
Codec ID : S_TEXT/UTF8
Codec ID/Info : UTF-8 Plain Text
Duration : 2 h 8 min
Bit rate : 58 b/s
Frame rate : 0.214 FPS
Count of elements : 1647
Stream size : 55.2 KiB (0%)
Language : Romanian
Default : No
Forced : No

Text #29
ID : 31
Format : UTF-8
Codec ID : S_TEXT/UTF8
Codec ID/Info : UTF-8 Plain Text
Duration : 2 h 8 min
Bit rate : 83 b/s
Frame rate : 0.215 FPS
Count of elements : 1657
Stream size : 78.6 KiB (0%)
Language : Russian
Default : No
Forced : No

Text #30
ID : 32
Format : UTF-8
Codec ID : S_TEXT/UTF8
Codec ID/Info : UTF-8 Plain Text
Duration : 2 h 8 min
Bit rate : 51 b/s
Frame rate : 0.200 FPS
Count of elements : 1542
Stream size : 48.4 KiB (0%)
Language : Swedish
Default : No
Forced : No

Text #31
ID : 33
Format : UTF-8
Codec ID : S_TEXT/UTF8
Codec ID/Info : UTF-8 Plain Text
Duration : 2 h 8 min
Bit rate : 138 b/s
Frame rate : 0.226 FPS
Count of elements : 1738
Stream size : 130 KiB (0%)
Language : Thai
Default : No
Forced : No

Text #32
ID : 34
Format : UTF-8
Codec ID : S_TEXT/UTF8
Codec ID/Info : UTF-8 Plain Text
Duration : 2 h 8 min
Bit rate : 51 b/s
Frame rate : 0.221 FPS
Count of elements : 1705
Stream size : 48.5 KiB (0%)
Language : Turkish
Default : No
Forced : No

Text #33
ID : 35
Format : UTF-8
Codec ID : S_TEXT/UTF8
Codec ID/Info : UTF-8 Plain Text
Duration : 2 h 8 min
Bit rate : 84 b/s
Frame rate : 0.216 FPS
Count of elements : 1661
Stream size : 79.6 KiB (0%)
Language : Ukrainian
Default : No
Forced : No

Text #34
ID : 36
Format : UTF-8
Codec ID : S_TEXT/UTF8
Codec ID/Info : UTF-8 Plain Text
Duration : 2 h 8 min
Bit rate : 70 b/s
Frame rate : 0.220 FPS
Count of elements : 1696
Stream size : 66.6 KiB (0%)
Language : Vietnamese
Default : No
Forced : No

Text #35
ID : 37
Format : UTF-8
Codec ID : S_TEXT/UTF8
Codec ID/Info : UTF-8 Plain Text
Duration : 2 h 8 min
Bit rate : 57 b/s
Frame rate : 0.227 FPS
Count of elements : 1751
Stream size : 53.7 KiB (0%)
Title : 简体中字
Language : Chinese
Default : No
Forced : No

Text #36
ID : 38
Format : UTF-8
Codec ID : S_TEXT/UTF8
Codec ID/Info : UTF-8 Plain Text
Duration : 2 h 8 min
Bit rate : 54 b/s
Frame rate : 0.224 FPS
Count of elements : 1727
Stream size : 51.5 KiB (0%)
Title : 繁体中字
Language : Chinese
Default : No
Forced : No

资源速度为零或资源敏感被和谐时,推荐使用qBittorrent等下载软件,有条件的推荐115更好的下载软件!

下载地址:

游客,如果您要查看本帖隐藏内容请回复

游客,如果您要查看本帖隐藏内容请回复






上一篇:饮料杯历险记:植物英雄 (2022) 4K高清版本下载
下一篇:福团·费斯特:好运旺旺来[简繁中字] (2022) 4K高清版本下载
回复

使用道具 举报

80

主题

1595

帖子

4677

积分

4K家园VIP

Rank: 9Rank: 9Rank: 9

积分
4677
发表于 2022-11-7 20:08:46 | 显示全部楼层
有4K版卡,下个看下
回复 支持 反对

使用道具 举报

主题

帖子

0

积分

新手上路

Rank: 1

积分
0
发表于 2022-11-18 02:23:09 | 显示全部楼层
回复

使用道具 举报

0

主题

2

帖子

9

积分

新手上路

Rank: 1

积分
9
发表于 4 天前 | 显示全部楼层
从第一部过来的,
回复 支持 反对

使用道具 举报

0

主题

1

帖子

6

积分

新手上路

Rank: 1

积分
6
发表于 前天 20:36 | 显示全部楼层
下载看看
回复

使用道具 举报

您需要登录后才可以回帖 登录 | 立即注册

本版积分规则

精彩图文
Archiver|手机版|TAG|Sitemap|新帖|专题|联系我们:邮箱: 4kjia.com@gmail.com   

4k家园   ©2019