[4K电影] 西线无战事 [简繁中字] (2022) 4K高清版本下载

  [复制链接]

主题

帖子

0

积分

超级版主

Rank: 8Rank: 8

积分
0
 楼主| 发表于 2022-11-7 21:50:09 | 显示全部楼层 |阅读模式
本帖最后由 没完没了 于 2022-11-25 10:29 编辑

西线无战事.png

◎标  题 西线无战事
◎译  名 新西线无战事 / All Quiet on the Western Front
◎片  名 Im Westen nichts Neues
◎年  代 2022
◎产  地 德国 / 美国
◎类  别 剧情 / 动作 / 战争
◎语  言 英语 / 德语
◎上映日期 2022-09-12(多伦多电影节) / 2022-09-29(德国) / 2022-10-28(德国网络)
◎IMDb评分 7.9/10 from 37270 users 更新 : 2022-11-07
◎IMDb链接 https://www.imdb.com/title/tt1016150/
◎豆瓣评分 8.6/10 from 44817 users 更新 : 2022-11-07
◎豆瓣链接 https://movie.douban.com/subject/3042261/
◎片  长 148分钟
◎导  演 爱德华·贝尔格 Edward Berger
◎编  剧 伊恩·斯托克尔 Ian Stokell / 爱德华·贝尔格 Edward Berger / 埃里希·玛利亚·雷马克 Erich Maria Remarque
◎演  员 费利克斯·卡米勒 Felix Kammerer
       阿尔布雷希特·舒赫 Albrecht Schuch
       亚伦·希尔默 Aaron Hilmer
       丹尼尔·布鲁赫 Daniel Brühl
       塞巴斯蒂安·胡克 Sebastian Hülk
       安东·范·卢克 Anton von Lucke
       大卫·史崔梭德 Devid Striesow
       埃丁·哈萨诺维奇 Edin Hasanović
       乔·温特劳布 Joe Weintraub
       吕克·费特 Luc Feit
       米夏埃尔·维滕博恩 Michael Wittenborn
       安德烈·马尔孔 André Marcon
       托比亚斯·兰霍夫 Tobias Langhoff
       阿德里安·格鲁内瓦尔德 Adrian Grünewald
       菲利克斯·冯·布雷多 Felix von Bredow
       迈克尔·斯坦格 Michael Stange
       莫里茨·克劳斯 Moritz Klaus
       伊恩·斯托克尔 Ian Stokell
       利西·克里斯特尔 Lisy Christl


◎简  介


  该片改编自埃里希·玛利亚·雷马克撰写的同名经典小说,讲述在第一次世界大战期间,保罗·鲍曼和同学莱尔、米勒参加了德国国民志愿兵,被派往前线与法军作战。在战场上,他们目睹到了残酷的饥饿、血腥和死亡,战争的荒谬无情让保罗从迷恋战争到心灰意冷。
Video
ID : 1
Format : HEVC
Format/Info : High Efficiency Video Coding
Format profile : Main 10@L5.1@High
HDR format : SMPTE ST 2086, HDR10 compatible
Codec ID : V_MPEGH/ISO/HEVC
Duration : 2 h 27 min
Bit rate : 18.0 Mb/s
Width : 3 840 pixels
Height : 1 604 pixels
Display aspect ratio : 2.40:1
Frame rate mode : Constant
Frame rate : 24.000 FPS
Color space : YUV
Chroma subsampling : 4:2:0
Bit depth : 10 bits
Bits/(Pixel*Frame) : 0.122
Stream size : 18.5 GiB (96%)
Writing library : x265 3.5+40-0b75c44c1:[Windows][MSVC 1933][64 bit] 10bit
Encoding settings : cpuid=1111039 / frame-threads=4 / numa-pools=0,28 / wpp / no-pmode / no-pme / no-psnr / no-ssim / log-level=2 / input-csp=1 / input-res=3840x1604 / interlace=0 / total-frames=0 / level-idc=51 / high-tier=1 / uhd-bd=0 / ref=5 / no-allow-non-conformance / repeat-headers / annexb / aud / no-eob / no-eos / hrd / info / hash=0 / no-temporal-layers / open-gop / min-keyint=24 / keyint=250 / gop-lookahead=0 / bframes=8 / b-adapt=2 / b-pyramid / bframe-bias=0 / rc-lookahead=40 / lookahead-slices=8 / scenecut=40 / no-hist-scenecut / radl=0 / no-splice / no-intra-refresh / ctu=64 / min-cu-size=8 / no-rect / no-amp / max-tu-size=32 / tu-inter-depth=3 / tu-intra-depth=4 / limit-tu=0 / rdoq-level=0 / dynamic-rd=0.00 / no-ssim-rd / signhide / no-tskip / nr-intra=0 / nr-inter=0 / no-constrained-intra / strong-intra-smoothing / max-merge=5 / limit-refs=0 / no-limit-modes / me=1 / subme=5 / merange=57 / temporal-mvp / no-frame-dup / no-hme / weightp / weightb / no-analyze-src-pics / deblock=-3:-3 / no-sao / no-sao-non-deblock / rd=4 / selective-sao=0 / early-skip / rskip / no-fast-intra / no-tskip-fast / no-cu-lossless / b-intra / no-splitrd-skip / rdpenalty=0 / psy-rd=2.00 / psy-rdoq=0.00 / no-rd-refine / no-lossless / cbqpoffs=0 / crqpoffs=0 / rc=crf / crf=17.0 / qcomp=0.60 / qpstep=4 / stats-write=0 / stats-read=0 / vbv-maxrate=160000 / vbv-bufsize=160000 / vbv-init=0.9 / min-vbv-fullness=50.0 / max-vbv-fullness=80.0 / crf-max=0.0 / crf-min=0.0 / ipratio=1.30 / pbratio=1.20 / aq-mode=3 / aq-strength=0.80 / no-cutree / zone-count=0 / no-strict-cbr / qg-size=32 / no-rc-grain / qpmax=69 / qpmin=0 / no-const-vbv / sar=1 / overscan=0 / videoformat=5 / range=0 / colorprim=9 / transfer=16 / colormatrix=9 / chromaloc=0 / display-window=0 / master-display=G(13250,34500)B(7500,3000)R(34000,16000)WP(15635,16450)L(10000000,1) / cll=1000,478 / min-luma=0 / max-luma=1023 / log2-max-poc-lsb=8 / vui-timing-info / vui-hrd-info / slices=1 / no-opt-qp-pps / no-opt-ref-list-length-pps / no-multi-pass-opt-rps / scenecut-bias=0.05 / hist-threshold=0.03 / no-opt-cu-delta-qp / no-aq-motion / hdr10 / hdr10-opt / no-dhdr10-opt / no-idr-recovery-sei / analysis-reuse-level=0 / analysis-save-reuse-level=0 / analysis-load-reuse-level=0 / scale-factor=0 / refine-intra=0 / refine-inter=0 / refine-mv=1 / refine-ctu-distortion=0 / no-limit-sao / ctu-info=0 / no-lowpass-dct / refine-analysis-type=0 / copy-pic=1 / max-ausize-factor=1.0 / no-dynamic-refine / no-single-sei / no-hevc-aq / no-svt / no-field / qp-adaptation-range=1.00 / scenecut-aware-qp=0conformance-window-offsets / right=0 / bottom=0 / decoder-max-rate=0 / no-vbv-live-multi-pass
Default : Yes
Forced : No
Color range : Limited
Color primaries : BT.2020
Transfer characteristics : PQ
Matrix coefficients : BT.2020 non-constant
Mastering display color primaries : Display P3
Mastering display luminance : min: 0.0001 cd/m2, max: 1000 cd/m2
Maximum Content Light Level : 1000 cd/m2
Maximum Frame-Average Light Level : 478 cd/m2

Audio
ID : 2
Format : E-AC-3 JOC
Format/Info : Enhanced AC-3 with Joint Object Coding
Commercial name : Dolby Digital Plus with Dolby Atmos
Codec ID : A_EAC3
Duration : 2 h 28 min
Bit rate mode : Constant
Bit rate : 768 kb/s
Channel(s) : 6 channels
Channel layout : L R C LFE Ls Rs
Sampling rate : 48.0 kHz
Frame rate : 31.250 FPS (1536 SPF)
Compression mode : Lossy
Stream size : 817 MiB (4%)
Title : German
Language : German
Service kind : Complete Main
Default : No
Forced : No
Complexity index : 16
Number of dynamic objects : 15
Bed channel count : 1 channel
Bed channel configuration : LFE

Text #1
ID : 3
Format : UTF-8
Codec ID : S_TEXT/UTF8
Codec ID/Info : UTF-8 Plain Text
Duration : 2 h 26 min
Bit rate : 47 b/s
Frame rate : 0.119 FPS
Count of elements : 1047
Stream size : 51.0 KiB (0%)
Title : Arabic
Language : Arabic
Default : No
Forced : No

Text #2
ID : 4
Format : UTF-8
Codec ID : S_TEXT/UTF8
Codec ID/Info : UTF-8 Plain Text
Duration : 2 h 26 min
Bit rate : 25 b/s
Frame rate : 0.119 FPS
Count of elements : 1050
Stream size : 27.3 KiB (0%)
Title : Basque
Language : Basque
Default : No
Forced : No

Text #3
ID : 5
Format : UTF-8
Codec ID : S_TEXT/UTF8
Codec ID/Info : UTF-8 Plain Text
Duration : 2 h 26 min
Bit rate : 22 b/s
Frame rate : 0.119 FPS
Count of elements : 1048
Stream size : 24.5 KiB (0%)
Title : Catalan
Language : Catalan
Default : No
Forced : No

Text #4
ID : 6
Format : UTF-8
Codec ID : S_TEXT/UTF8
Codec ID/Info : UTF-8 Plain Text
Duration : 2 h 26 min
Bit rate : 26 b/s
Frame rate : 0.132 FPS
Count of elements : 1158
Stream size : 28.6 KiB (0%)
Title : 简体中字
Language : Chinese
Default : No
Forced : No

Text #5
ID : 7
Format : UTF-8
Codec ID : S_TEXT/UTF8
Codec ID/Info : UTF-8 Plain Text
Duration : 2 h 23 min
Bit rate : 26 b/s
Frame rate : 0.123 FPS
Count of elements : 1061
Stream size : 27.8 KiB (0%)
Title : 繁体中字
Language : Chinese
Default : No
Forced : No

Text #6
ID : 8
Format : UTF-8
Codec ID : S_TEXT/UTF8
Codec ID/Info : UTF-8 Plain Text
Duration : 2 h 23 min
Bit rate : 23 b/s
Frame rate : 0.119 FPS
Count of elements : 1027
Stream size : 25.1 KiB (0%)
Title : Czech
Language : Czech
Default : No
Forced : No

Text #7
ID : 9
Format : UTF-8
Codec ID : S_TEXT/UTF8
Codec ID/Info : UTF-8 Plain Text
Duration : 2 h 23 min
Bit rate : 23 b/s
Frame rate : 0.116 FPS
Count of elements : 1004
Stream size : 24.6 KiB (0%)
Title : Danish
Language : Danish
Default : No
Forced : No

Text #8
ID : 10
Format : UTF-8
Codec ID : S_TEXT/UTF8
Codec ID/Info : UTF-8 Plain Text
Duration : 2 h 23 min
Bit rate : 22 b/s
Frame rate : 0.110 FPS
Count of elements : 952
Stream size : 23.8 KiB (0%)
Title : Dutch
Language : Dutch
Default : No
Forced : No

Text #9
ID : 11
Format : UTF-8
Codec ID : S_TEXT/UTF8
Codec ID/Info : UTF-8 Plain Text
Duration : 2 h 21 min
Bit rate : 38 b/s
Frame rate : 0.172 FPS
Count of elements : 1461
Stream size : 39.5 KiB (0%)
Title : British English [SDH]
Language : English
Default : No
Forced : No

Text #10
ID : 12
Format : UTF-8
Codec ID : S_TEXT/UTF8
Codec ID/Info : UTF-8 Plain Text
Duration : 2 h 17 min
Bit rate : 30 b/s
Frame rate : 0.138 FPS
Count of elements : 1137
Stream size : 30.5 KiB (0%)
Title : British English
Language : English
Default : No
Forced : No

Text #11
ID : 13
Format : UTF-8
Codec ID : S_TEXT/UTF8
Codec ID/Info : UTF-8 Plain Text
Duration : 2 h 23 min
Bit rate : 21 b/s
Frame rate : 0.101 FPS
Count of elements : 872
Stream size : 23.1 KiB (0%)
Title : Finnish
Language : Finnish
Default : No
Forced : No

Text #12
ID : 14
Format : UTF-8
Codec ID : S_TEXT/UTF8
Codec ID/Info : UTF-8 Plain Text
Duration : 2 h 23 min
Bit rate : 24 b/s
Frame rate : 0.113 FPS
Count of elements : 975
Stream size : 25.4 KiB (0%)
Title : French
Language : French
Default : No
Forced : No

Text #13
ID : 15
Format : UTF-8
Codec ID : S_TEXT/UTF8
Codec ID/Info : UTF-8 Plain Text
Duration : 2 h 19 min
Bit rate : 37 b/s
Frame rate : 0.161 FPS
Count of elements : 1341
Stream size : 38.2 KiB (0%)
Title : German [SDH]
Language : German
Default : No
Forced : No

Text #14
ID : 16
Format : UTF-8
Codec ID : S_TEXT/UTF8
Codec ID/Info : UTF-8 Plain Text
Duration : 1 h 50 min
Bit rate : 1 b/s
Frame rate : 0.008 FPS
Count of elements : 54
Stream size : 1.14 KiB (0%)
Title : German [Forced]
Language : German
Default : No
Forced : Yes

Text #15
ID : 17
Format : UTF-8
Codec ID : S_TEXT/UTF8
Codec ID/Info : UTF-8 Plain Text
Duration : 2 h 13 min
Bit rate : 29 b/s
Frame rate : 0.126 FPS
Count of elements : 1010
Stream size : 28.5 KiB (0%)
Title : German
Language : German
Default : No
Forced : No

Text #16
ID : 18
Format : UTF-8
Codec ID : S_TEXT/UTF8
Codec ID/Info : UTF-8 Plain Text
Duration : 2 h 26 min
Bit rate : 23 b/s
Frame rate : 0.119 FPS
Count of elements : 1047
Stream size : 24.9 KiB (0%)
Title : Galician
Language : Galician
Default : No
Forced : No

Text #17
ID : 19
Format : UTF-8
Codec ID : S_TEXT/UTF8
Codec ID/Info : UTF-8 Plain Text
Duration : 2 h 26 min
Bit rate : 41 b/s
Frame rate : 0.121 FPS
Count of elements : 1067
Stream size : 44.2 KiB (0%)
Title : Greek
Language : Greek
Default : No
Forced : No

Text #18
ID : 20
Format : UTF-8
Codec ID : S_TEXT/UTF8
Codec ID/Info : UTF-8 Plain Text
Duration : 2 h 23 min
Bit rate : 40 b/s
Frame rate : 0.122 FPS
Count of elements : 1053
Stream size : 42.4 KiB (0%)
Title : Hebrew
Language : Hebrew
Default : No
Forced : No

Text #19
ID : 21
Format : UTF-8
Codec ID : S_TEXT/UTF8
Codec ID/Info : UTF-8 Plain Text
Duration : 2 h 23 min
Bit rate : 22 b/s
Frame rate : 0.119 FPS
Count of elements : 1030
Stream size : 23.3 KiB (0%)
Title : Croatian
Language : Croatian
Default : No
Forced : No

Text #20
ID : 22
Format : UTF-8
Codec ID : S_TEXT/UTF8
Codec ID/Info : UTF-8 Plain Text
Duration : 2 h 26 min
Bit rate : 25 b/s
Frame rate : 0.116 FPS
Count of elements : 1018
Stream size : 27.0 KiB (0%)
Title : Hungarian
Language : Hungarian
Default : No
Forced : No

Text #21
ID : 23
Format : UTF-8
Codec ID : S_TEXT/UTF8
Codec ID/Info : UTF-8 Plain Text
Duration : 2 h 23 min
Bit rate : 25 b/s
Frame rate : 0.122 FPS
Count of elements : 1053
Stream size : 26.5 KiB (0%)
Title : Indonesian
Language : Indonesian
Default : No
Forced : No

Text #22
ID : 24
Format : UTF-8
Codec ID : S_TEXT/UTF8
Codec ID/Info : UTF-8 Plain Text
Duration : 2 h 23 min
Bit rate : 23 b/s
Frame rate : 0.120 FPS
Count of elements : 1033
Stream size : 25.1 KiB (0%)
Title : Italian
Language : Italian
Default : No
Forced : No

Text #23
ID : 25
Format : UTF-8
Codec ID : S_TEXT/UTF8
Codec ID/Info : UTF-8 Plain Text
Duration : 2 h 23 min
Bit rate : 25 b/s
Frame rate : 0.111 FPS
Count of elements : 955
Stream size : 26.7 KiB (0%)
Title : Japanese
Language : Japanese
Default : No
Forced : No

Text #24
ID : 26
Format : UTF-8
Codec ID : S_TEXT/UTF8
Codec ID/Info : UTF-8 Plain Text
Duration : 2 h 26 min
Bit rate : 31 b/s
Frame rate : 0.120 FPS
Count of elements : 1060
Stream size : 33.9 KiB (0%)
Title : Korean
Language : Korean
Default : No
Forced : No

Text #25
ID : 27
Format : UTF-8
Codec ID : S_TEXT/UTF8
Codec ID/Info : UTF-8 Plain Text
Duration : 2 h 26 min
Bit rate : 23 b/s
Frame rate : 0.120 FPS
Count of elements : 1052
Stream size : 25.1 KiB (0%)
Title : Malay
Language : Malay
Default : No
Forced : No

Text #26
ID : 28
Format : UTF-8
Codec ID : S_TEXT/UTF8
Codec ID/Info : UTF-8 Plain Text
Duration : 2 h 23 min
Bit rate : 22 b/s
Frame rate : 0.121 FPS
Count of elements : 1045
Stream size : 24.0 KiB (0%)
Title : Norwegian Bokmal
Language : Norwegian Bokmal
Default : No
Forced : No

Text #27
ID : 29
Format : UTF-8
Codec ID : S_TEXT/UTF8
Codec ID/Info : UTF-8 Plain Text
Duration : 2 h 26 min
Bit rate : 26 b/s
Frame rate : 0.120 FPS
Count of elements : 1053
Stream size : 28.0 KiB (0%)
Title : Filipino
Language : phi
Default : No
Forced : No

Text #28
ID : 30
Format : UTF-8
Codec ID : S_TEXT/UTF8
Codec ID/Info : UTF-8 Plain Text
Duration : 2 h 26 min
Bit rate : 20 b/s
Frame rate : 0.108 FPS
Count of elements : 950
Stream size : 22.2 KiB (0%)
Title : Polish
Language : Polish
Default : No
Forced : No

Text #29
ID : 31
Format : UTF-8
Codec ID : S_TEXT/UTF8
Codec ID/Info : UTF-8 Plain Text
Duration : 2 h 23 min
Bit rate : 25 b/s
Frame rate : 0.121 FPS
Count of elements : 1047
Stream size : 26.8 KiB (0%)
Title : Brazilian Portuguese
Language : Portuguese
Default : No
Forced : No

Text #30
ID : 32
Format : UTF-8
Codec ID : S_TEXT/UTF8
Codec ID/Info : UTF-8 Plain Text
Duration : 2 h 23 min
Bit rate : 24 b/s
Frame rate : 0.120 FPS
Count of elements : 1036
Stream size : 26.0 KiB (0%)
Title : Portuguese
Language : Portuguese
Default : No
Forced : No

Text #31
ID : 33
Format : UTF-8
Codec ID : S_TEXT/UTF8
Codec ID/Info : UTF-8 Plain Text
Duration : 2 h 23 min
Bit rate : 28 b/s
Frame rate : 0.117 FPS
Count of elements : 1014
Stream size : 30.6 KiB (0%)
Title : Romanian
Language : Romanian
Default : No
Forced : No

Text #32
ID : 34
Format : UTF-8
Codec ID : S_TEXT/UTF8
Codec ID/Info : UTF-8 Plain Text
Duration : 2 h 26 min
Bit rate : 38 b/s
Frame rate : 0.117 FPS
Count of elements : 1028
Stream size : 41.1 KiB (0%)
Title : Russian
Language : Russian
Default : No
Forced : No

Text #33
ID : 35
Format : UTF-8
Codec ID : S_TEXT/UTF8
Codec ID/Info : UTF-8 Plain Text
Duration : 2 h 23 min
Bit rate : 25 b/s
Frame rate : 0.120 FPS
Count of elements : 1039
Stream size : 27.2 KiB (0%)
Title : European Spanish
Language : Spanish
Default : No
Forced : No

Text #34
ID : 36
Format : UTF-8
Codec ID : S_TEXT/UTF8
Codec ID/Info : UTF-8 Plain Text
Duration : 2 h 20 min
Bit rate : 32 b/s
Frame rate : 0.154 FPS
Count of elements : 1296
Stream size : 33.7 KiB (0%)
Title : Spanish [SDH]
Language : Spanish
Default : No
Forced : No

Text #35
ID : 37
Format : UTF-8
Codec ID : S_TEXT/UTF8
Codec ID/Info : UTF-8 Plain Text
Duration : 2 h 20 min
Bit rate : 25 b/s
Frame rate : 0.123 FPS
Count of elements : 1034
Stream size : 26.5 KiB (0%)
Title : Spanish
Language : Spanish
Default : No
Forced : No

Text #36
ID : 38
Format : UTF-8
Codec ID : S_TEXT/UTF8
Codec ID/Info : UTF-8 Plain Text
Duration : 2 h 23 min
Bit rate : 25 b/s
Frame rate : 0.107 FPS
Count of elements : 922
Stream size : 26.4 KiB (0%)
Title : Swedish
Language : Swedish
Default : No
Forced : No

Text #37
ID : 39
Format : UTF-8
Codec ID : S_TEXT/UTF8
Codec ID/Info : UTF-8 Plain Text
Duration : 2 h 26 min
Bit rate : 65 b/s
Frame rate : 0.120 FPS
Count of elements : 1059
Stream size : 70.6 KiB (0%)
Title : Thai
Language : Thai
Default : No
Forced : No

Text #38
ID : 40
Format : UTF-8
Codec ID : S_TEXT/UTF8
Codec ID/Info : UTF-8 Plain Text
Duration : 2 h 26 min
Bit rate : 43 b/s
Frame rate : 0.193 FPS
Count of elements : 1696
Stream size : 47.1 KiB (0%)
Title : Turkish [SDH]
Language : Turkish
Default : No
Forced : No

Text #39
ID : 41
Format : UTF-8
Codec ID : S_TEXT/UTF8
Codec ID/Info : UTF-8 Plain Text
Duration : 2 h 20 min
Bit rate : 28 b/s
Frame rate : 0.131 FPS
Count of elements : 1099
Stream size : 29.5 KiB (0%)
Title : Turkish
Language : Turkish
Default : No
Forced : No

Text #40
ID : 42
Format : UTF-8
Codec ID : S_TEXT/UTF8
Codec ID/Info : UTF-8 Plain Text
Duration : 2 h 26 min
Bit rate : 39 b/s
Frame rate : 0.118 FPS
Count of elements : 1036
Stream size : 42.1 KiB (0%)
Title : Ukrainian
Language : Ukrainian
Default : No
Forced : No

Text #41
ID : 43
Format : UTF-8
Codec ID : S_TEXT/UTF8
Codec ID/Info : UTF-8 Plain Text
Duration : 2 h 26 min
Bit rate : 33 b/s
Frame rate : 0.120 FPS
Count of elements : 1057
Stream size : 36.0 KiB (0%)
Title : Vietnamese
Language : Vietnamese
Default : No
Forced : No

资源速度为零或资源敏感被和谐时,推荐使用qBittorrent等下载软件,有条件的推荐115更好的下载软件!

下载地址:
游客,如果您要查看本帖隐藏内容请回复

游客,如果您要查看本帖隐藏内容请回复




上一篇:桥洞的诅咒 [简繁中字] (2022) 4K高清版本下载
下一篇:善恶魔法学院 [简繁中字] (2022) 4K高清版本下载
回复

使用道具 举报

2

主题

1412

帖子

4102

积分

4K家园VIP

Rank: 9Rank: 9Rank: 9

积分
4102
发表于 2022-11-7 21:50:18 | 显示全部楼层
我也顶起出售广告位
回复 支持 反对

使用道具 举报

主题

帖子

0

积分

新手上路

Rank: 1

积分
0
发表于 2022-11-8 09:19:28 | 显示全部楼层
我也顶起
回复

使用道具 举报

0

主题

12

帖子

3052

积分

中级会员

Rank: 4

积分
3052
发表于 2022-11-8 09:57:58 | 显示全部楼层
感谢分享
回复

使用道具 举报

主题

帖子

0

积分

新手上路

Rank: 1

积分
0
发表于 2022-11-8 12:02:12 | 显示全部楼层
谢谢楼主分享
回复 支持 反对

使用道具 举报

57

主题

1506

帖子

4354

积分

4K家园VIP

Rank: 9Rank: 9Rank: 9

积分
4354
发表于 2022-11-8 12:52:14 | 显示全部楼层
楼猪V5啊
回复 支持 反对

使用道具 举报

主题

帖子

88

积分

新手上路

Rank: 1

积分
88
发表于 2022-11-8 15:56:02 | 显示全部楼层
下载看看
回复

使用道具 举报

主题

帖子

77

积分

新手上路

Rank: 1

积分
77
发表于 2022-11-8 18:05:32 | 显示全部楼层
哒哒哒哒哒哒
回复 支持 反对

使用道具 举报

主题

帖子

0

积分

新手上路

Rank: 1

积分
0
发表于 2022-11-9 09:29:10 | 显示全部楼层

谢谢楼主分享
回复 支持 反对

使用道具 举报

主题

帖子

16

积分

新手上路

Rank: 1

积分
16
发表于 2022-11-9 14:53:31 | 显示全部楼层
谢谢楼主分享
回复 支持 反对

使用道具 举报

您需要登录后才可以回帖 登录 | 立即注册

本版积分规则

精彩图文
Archiver|手机版|TAG|Sitemap|新帖|专题|联系我们:邮箱: 4kjia.com@gmail.com   

4k家园   ©2019