[4K电影] 善恶魔法学院 [简繁中字] (2022) 4K高清版本下载

[复制链接]

主题

帖子

0

积分

超级版主

Rank: 8Rank: 8

积分
0
 楼主| 发表于 2022-11-7 21:04:42 | 显示全部楼层 |阅读模式
本帖最后由 最爱4K哟 于 2022-11-26 11:47 编辑

善恶魔法学院_1.png

◎标  题 善恶魔法学院
◎译  名 善恶学校 / 善恶学院
◎片  名 The School for Good and Evil
◎年  代 2022
◎产  地 美国
◎类  别 剧情 / 动作 / 奇幻
◎语  言 英语
◎上映日期 2022-10-19(美国网络)
◎IMDb评分 5.8/10 from 17030 users 更新 : 2022-11-04
◎IMDb链接 https://www.imdb.com/title/tt2935622/
◎豆瓣评分 0/10 from 0 users
◎豆瓣链接 https://movie.douban.com/subject/35017053/
◎片  长 147分钟
◎导  演 保罗·费格 Paul Feig
◎编  剧 索曼·查纳尼 Soman Chainani / 大卫·麦基 David Magee / 劳拉·索隆 Laura Solon
◎演  员 查理兹·塞隆 Charlize Theron
       凯丽·华盛顿 Kerry Washington
       索菲亚·怀利 Sofia Wylie
       索菲娅·安妮·卡鲁索 Sophia Anne Caruso
       杨紫琼 Michelle Yeoh
       凯特·布兰切特 Cate Blanchett
       本·金斯利 Ben Kingsley
       劳伦斯·菲什伯恩 Laurence Fishburne
       罗伯·德兰尼 Rob Delaney
       蕾切尔·布鲁姆 Rachel Bloom
       帕蒂·卢波恩 Patti LuPone
       马克·希普 Mark Heap
       厄尔·凯夫 Earl Cave
       罗西·格雷厄姆 Rosie Graham
       杰米·福雷特斯 Jamie Flatters
       基特·杨 Kit Young
       弗雷娅·帕克斯 Freya Parks
       钦尼·埃祖杜 Chinenye Ezeudu
       艾萨克·奥维亚韦 Demi Isaac Oviawe
       霍利·斯图顿 Holly Sturton
       阿里·坎 Ali Khan
       蕾妮·厄尔里奇·卡尔夫斯 Renee Ehrlich Kalfus


◎简  介


  在加瓦尔顿村,两个不合群的好朋友索菲(索菲娅·安妮·卡鲁索饰)和阿加莎(索菲亚·怀利饰)上演着她们之间不可思议的友谊。索菲是童话爱好者,梦想着逃离平凡的乡村生活;而阿加莎则拥有冷峻的外表,拥有真正的女巫所具备的气质。一天晚上,在血红的月亮下,一股强大的力量把她们带到了善恶魔法学院,每一个精彩童话中的真实故事都在这里拉开帷幕。然而,情势从一开始便有些不妙:索菲进了邪恶学院,由魅力四射但说话刻薄尖锐的莱索夫人(查理兹·塞隆饰)负责;阿加莎则入选善念学院,由阳光善良的多维教授(凯丽·华盛顿饰)监管。据校长(劳伦斯·菲什伯恩饰)所言,与灰姑娘和胡克船长的后代以及亚瑟王英俊的儿子(杰米·福雷特斯)一起上课似乎还算不上是什么困难,只有真爱之吻才能改变规则,让女孩们进入自己原本该去的学校。但是,当一个与索菲有着神秘关系的黑暗危险人物(基特·扬饰)再次出现,并威胁要...
Video
ID : 1
Format : HEVC
Format/Info : High Efficiency Video Coding
Format profile : Main 10@L5.1@High
HDR format : SMPTE ST 2086, HDR10 compatible
Codec ID : V_MPEGH/ISO/HEVC
Duration : 2 h 26 min
Bit rate : 16.5 Mb/s
Width : 3 840 pixels
Height : 1 920 pixels
Display aspect ratio : 2.000
Frame rate mode : Constant
Frame rate : 24.000 FPS
Color space : YUV
Chroma subsampling : 4:2:0
Bit depth : 10 bits
Bits/(Pixel*Frame) : 0.093
Stream size : 16.9 GiB (95%)
Writing library : x265 3.5+40-0b75c44c1:[Windows][MSVC 1933][64 bit] 10bit
Encoding settings : cpuid=1111039 / frame-threads=4 / numa-pools=28,0 / wpp / no-pmode / no-pme / no-psnr / no-ssim / log-level=2 / input-csp=1 / input-res=3840x1920 / interlace=0 / total-frames=0 / level-idc=51 / high-tier=1 / uhd-bd=0 / ref=5 / no-allow-non-conformance / repeat-headers / annexb / aud / no-eob / no-eos / hrd / info / hash=0 / no-temporal-layers / open-gop / min-keyint=24 / keyint=250 / gop-lookahead=0 / bframes=8 / b-adapt=2 / b-pyramid / bframe-bias=0 / rc-lookahead=40 / lookahead-slices=8 / scenecut=40 / no-hist-scenecut / radl=0 / no-splice / no-intra-refresh / ctu=64 / min-cu-size=8 / no-rect / no-amp / max-tu-size=32 / tu-inter-depth=3 / tu-intra-depth=4 / limit-tu=0 / rdoq-level=0 / dynamic-rd=0.00 / no-ssim-rd / signhide / no-tskip / nr-intra=0 / nr-inter=0 / no-constrained-intra / strong-intra-smoothing / max-merge=5 / limit-refs=0 / no-limit-modes / me=1 / subme=5 / merange=57 / temporal-mvp / no-frame-dup / no-hme / weightp / weightb / no-analyze-src-pics / deblock=-3:-3 / no-sao / no-sao-non-deblock / rd=4 / selective-sao=0 / early-skip / rskip / no-fast-intra / no-tskip-fast / no-cu-lossless / b-intra / no-splitrd-skip / rdpenalty=0 / psy-rd=2.00 / psy-rdoq=0.00 / no-rd-refine / no-lossless / cbqpoffs=0 / crqpoffs=0 / rc=crf / crf=18.0 / qcomp=0.60 / qpstep=4 / stats-write=0 / stats-read=0 / vbv-maxrate=160000 / vbv-bufsize=160000 / vbv-init=0.9 / min-vbv-fullness=50.0 / max-vbv-fullness=80.0 / crf-max=0.0 / crf-min=0.0 / ipratio=1.30 / pbratio=1.20 / aq-mode=3 / aq-strength=0.80 / no-cutree / zone-count=0 / no-strict-cbr / qg-size=32 / no-rc-grain / qpmax=69 / qpmin=0 / no-const-vbv / sar=1 / overscan=0 / videoformat=5 / range=0 / colorprim=9 / transfer=16 / colormatrix=9 / chromaloc=0 / display-window=0 / master-display=G(13250,34500)B(7500,3000)R(34000,16000)WP(15635,16450)L(10000000,1) / cll=756,275 / min-luma=0 / max-luma=1023 / log2-max-poc-lsb=8 / vui-timing-info / vui-hrd-info / slices=1 / no-opt-qp-pps / no-opt-ref-list-length-pps / no-multi-pass-opt-rps / scenecut-bias=0.05 / hist-threshold=0.03 / no-opt-cu-delta-qp / no-aq-motion / hdr10 / hdr10-opt / no-dhdr10-opt / no-idr-recovery-sei / analysis-reuse-level=0 / analysis-save-reuse-level=0 / analysis-load-reuse-level=0 / scale-factor=0 / refine-intra=0 / refine-inter=0 / refine-mv=1 / refine-ctu-distortion=0 / no-limit-sao / ctu-info=0 / no-lowpass-dct / refine-analysis-type=0 / copy-pic=1 / max-ausize-factor=1.0 / no-dynamic-refine / no-single-sei / no-hevc-aq / no-svt / no-field / qp-adaptation-range=1.00 / scenecut-aware-qp=0conformance-window-offsets / right=0 / bottom=0 / decoder-max-rate=0 / no-vbv-live-multi-pass
Default : Yes
Forced : No
Color range : Limited
Color primaries : BT.2020
Transfer characteristics : PQ
Matrix coefficients : BT.2020 non-constant
Mastering display color primaries : Display P3
Mastering display luminance : min: 0.0001 cd/m2, max: 1000 cd/m2
Maximum Content Light Level : 756 cd/m2
Maximum Frame-Average Light Level : 275 cd/m2

Audio
ID : 2
Format : E-AC-3 JOC
Format/Info : Enhanced AC-3 with Joint Object Coding
Commercial name : Dolby Digital Plus with Dolby Atmos
Codec ID : A_EAC3
Duration : 2 h 28 min
Bit rate mode : Constant
Bit rate : 768 kb/s
Channel(s) : 6 channels
Channel layout : L R C LFE Ls Rs
Sampling rate : 48.0 kHz
Frame rate : 31.250 FPS (1536 SPF)
Compression mode : Lossy
Stream size : 818 MiB (5%)
Language : English
Service kind : Complete Main
Default : Yes
Forced : No
Complexity index : 16
Number of dynamic objects : 15
Bed channel count : 1 channel
Bed channel configuration : LFE

Text #1
ID : 3
Format : UTF-8
Codec ID : S_TEXT/UTF8
Codec ID/Info : UTF-8 Plain Text
Duration : 2 h 15 min
Bit rate : 58 b/s
Frame rate : 0.243 FPS
Count of elements : 1978
Stream size : 58.4 KiB (0%)
Language : English
Default : No
Forced : No

Text #2
ID : 4
Format : UTF-8
Codec ID : S_TEXT/UTF8
Codec ID/Info : UTF-8 Plain Text
Duration : 2 h 26 min
Bit rate : 91 b/s
Frame rate : 0.357 FPS
Count of elements : 3137
Stream size : 98.3 KiB (0%)
Title : SDH
Language : English
Default : No
Forced : No

Text #3
ID : 5
Format : UTF-8
Codec ID : S_TEXT/UTF8
Codec ID/Info : UTF-8 Plain Text
Duration : 2 h 25 min
Bit rate : 86 b/s
Frame rate : 0.217 FPS
Count of elements : 1899
Stream size : 92.3 KiB (0%)
Language : Arabic
Default : No
Forced : No

Text #4
ID : 6
Format : UTF-8
Codec ID : S_TEXT/UTF8
Codec ID/Info : UTF-8 Plain Text
Duration : 2 h 16 min
Bit rate : 56 b/s
Frame rate : 0.233 FPS
Count of elements : 1916
Stream size : 56.3 KiB (0%)
Language : Czech
Default : No
Forced : No

Text #5
ID : 7
Format : UTF-8
Codec ID : S_TEXT/UTF8
Codec ID/Info : UTF-8 Plain Text
Duration : 2 h 25 min
Bit rate : 50 b/s
Frame rate : 0.210 FPS
Count of elements : 1835
Stream size : 53.6 KiB (0%)
Language : Czech
Default : No
Forced : No

Text #6
ID : 8
Format : UTF-8
Codec ID : S_TEXT/UTF8
Codec ID/Info : UTF-8 Plain Text
Duration : 2 h 26 min
Bit rate : 83 b/s
Frame rate : 0.342 FPS
Count of elements : 3004
Stream size : 89.1 KiB (0%)
Title : SDH
Language : Czech
Default : No
Forced : No

Text #7
ID : 9
Format : UTF-8
Codec ID : S_TEXT/UTF8
Codec ID/Info : UTF-8 Plain Text
Duration : 2 h 25 min
Bit rate : 49 b/s
Frame rate : 0.203 FPS
Count of elements : 1772
Stream size : 53.1 KiB (0%)
Language : Danish
Default : No
Forced : No

Text #8
ID : 10
Format : UTF-8
Codec ID : S_TEXT/UTF8
Codec ID/Info : UTF-8 Plain Text
Duration : 2 h 25 min
Bit rate : 55 b/s
Frame rate : 0.200 FPS
Count of elements : 1752
Stream size : 59.1 KiB (0%)
Language : German
Default : No
Forced : No

Text #9
ID : 11
Format : UTF-8
Codec ID : S_TEXT/UTF8
Codec ID/Info : UTF-8 Plain Text
Duration : 2 h 25 min
Bit rate : 89 b/s
Frame rate : 0.206 FPS
Count of elements : 1799
Stream size : 95.0 KiB (0%)
Language : Greek
Default : No
Forced : No

Text #10
ID : 12
Format : UTF-8
Codec ID : S_TEXT/UTF8
Codec ID/Info : UTF-8 Plain Text
Duration : 2 h 17 min
Bit rate : 58 b/s
Frame rate : 0.230 FPS
Count of elements : 1893
Stream size : 58.7 KiB (0%)
Language : Spanish
Default : No
Forced : No

Text #11
ID : 13
Format : UTF-8
Codec ID : S_TEXT/UTF8
Codec ID/Info : UTF-8 Plain Text
Duration : 2 h 25 min
Bit rate : 49 b/s
Frame rate : 0.215 FPS
Count of elements : 1879
Stream size : 53.2 KiB (0%)
Language : Spanish
Default : No
Forced : No

Text #12
ID : 14
Format : UTF-8
Codec ID : S_TEXT/UTF8
Codec ID/Info : UTF-8 Plain Text
Duration : 2 h 25 min
Bit rate : 50 b/s
Frame rate : 0.213 FPS
Count of elements : 1866
Stream size : 54.3 KiB (0%)
Title : European
Language : Spanish
Default : No
Forced : No

Text #13
ID : 15
Format : UTF-8
Codec ID : S_TEXT/UTF8
Codec ID/Info : UTF-8 Plain Text
Duration : 2 h 25 min
Bit rate : 60 b/s
Frame rate : 0.247 FPS
Count of elements : 2151
Stream size : 64.5 KiB (0%)
Title : SDH
Language : Spanish
Default : No
Forced : No

Text #14
ID : 16
Format : UTF-8
Codec ID : S_TEXT/UTF8
Codec ID/Info : UTF-8 Plain Text
Duration : 2 h 25 min
Bit rate : 50 b/s
Frame rate : 0.181 FPS
Count of elements : 1584
Stream size : 54.2 KiB (0%)
Language : Finnish
Default : No
Forced : No

Text #15
ID : 17
Format : UTF-8
Codec ID : S_TEXT/UTF8
Codec ID/Info : UTF-8 Plain Text
Duration : 2 h 25 min
Bit rate : 53 b/s
Frame rate : 0.209 FPS
Count of elements : 1824
Stream size : 57.5 KiB (0%)
Language : fil
Default : No
Forced : No

Text #16
ID : 18
Format : UTF-8
Codec ID : S_TEXT/UTF8
Codec ID/Info : UTF-8 Plain Text
Duration : 2 h 25 min
Bit rate : 52 b/s
Frame rate : 0.216 FPS
Count of elements : 1892
Stream size : 56.1 KiB (0%)
Language : French
Default : No
Forced : No

Text #17
ID : 19
Format : UTF-8
Codec ID : S_TEXT/UTF8
Codec ID/Info : UTF-8 Plain Text
Duration : 2 h 25 min
Bit rate : 85 b/s
Frame rate : 0.317 FPS
Count of elements : 2767
Stream size : 91.7 KiB (0%)
Title : SDH
Language : French
Default : No
Forced : No

Text #18
ID : 20
Format : UTF-8
Codec ID : S_TEXT/UTF8
Codec ID/Info : UTF-8 Plain Text
Duration : 2 h 25 min
Bit rate : 82 b/s
Frame rate : 0.203 FPS
Count of elements : 1771
Stream size : 87.6 KiB (0%)
Language : Hebrew
Default : No
Forced : No

Text #19
ID : 21
Format : UTF-8
Codec ID : S_TEXT/UTF8
Codec ID/Info : UTF-8 Plain Text
Duration : 2 h 25 min
Bit rate : 46 b/s
Frame rate : 0.212 FPS
Count of elements : 1858
Stream size : 50.1 KiB (0%)
Language : Croatian
Default : No
Forced : No

Text #20
ID : 22
Format : UTF-8
Codec ID : S_TEXT/UTF8
Codec ID/Info : UTF-8 Plain Text
Duration : 2 h 25 min
Bit rate : 54 b/s
Frame rate : 0.207 FPS
Count of elements : 1814
Stream size : 57.9 KiB (0%)
Language : Hungarian
Default : No
Forced : No

Text #21
ID : 23
Format : UTF-8
Codec ID : S_TEXT/UTF8
Codec ID/Info : UTF-8 Plain Text
Duration : 2 h 25 min
Bit rate : 50 b/s
Frame rate : 0.213 FPS
Count of elements : 1864
Stream size : 53.4 KiB (0%)
Language : Indonesian
Default : No
Forced : No

Text #22
ID : 24
Format : UTF-8
Codec ID : S_TEXT/UTF8
Codec ID/Info : UTF-8 Plain Text
Duration : 2 h 25 min
Bit rate : 50 b/s
Frame rate : 0.213 FPS
Count of elements : 1866
Stream size : 54.4 KiB (0%)
Language : Italian
Default : No
Forced : No

Text #23
ID : 25
Format : UTF-8
Codec ID : S_TEXT/UTF8
Codec ID/Info : UTF-8 Plain Text
Duration : 2 h 26 min
Bit rate : 74 b/s
Frame rate : 0.316 FPS
Count of elements : 2770
Stream size : 80.1 KiB (0%)
Title : SDH
Language : Italian
Default : No
Forced : No

Text #24
ID : 26
Format : UTF-8
Codec ID : S_TEXT/UTF8
Codec ID/Info : UTF-8 Plain Text
Duration : 2 h 25 min
Bit rate : 55 b/s
Frame rate : 0.212 FPS
Count of elements : 1853
Stream size : 58.9 KiB (0%)
Language : Japanese
Default : No
Forced : No

Text #25
ID : 27
Format : UTF-8
Codec ID : S_TEXT/UTF8
Codec ID/Info : UTF-8 Plain Text
Duration : 2 h 25 min
Bit rate : 61 b/s
Frame rate : 0.215 FPS
Count of elements : 1882
Stream size : 65.6 KiB (0%)
Language : Korean
Default : No
Forced : No

Text #26
ID : 28
Format : UTF-8
Codec ID : S_TEXT/UTF8
Codec ID/Info : UTF-8 Plain Text
Duration : 2 h 25 min
Bit rate : 49 b/s
Frame rate : 0.210 FPS
Count of elements : 1838
Stream size : 52.6 KiB (0%)
Language : Malay
Default : No
Forced : No

Text #27
ID : 29
Format : UTF-8
Codec ID : S_TEXT/UTF8
Codec ID/Info : UTF-8 Plain Text
Duration : 2 h 25 min
Bit rate : 49 b/s
Frame rate : 0.196 FPS
Count of elements : 1713
Stream size : 52.3 KiB (0%)
Language : Norwegian Bokmal
Default : No
Forced : No

Text #28
ID : 30
Format : UTF-8
Codec ID : S_TEXT/UTF8
Codec ID/Info : UTF-8 Plain Text
Duration : 2 h 25 min
Bit rate : 46 b/s
Frame rate : 0.188 FPS
Count of elements : 1646
Stream size : 49.8 KiB (0%)
Language : Dutch
Default : No
Forced : No

Text #29
ID : 31
Format : UTF-8
Codec ID : S_TEXT/UTF8
Codec ID/Info : UTF-8 Plain Text
Duration : 2 h 25 min
Bit rate : 50 b/s
Frame rate : 0.212 FPS
Count of elements : 1854
Stream size : 53.8 KiB (0%)
Language : Polish
Default : No
Forced : No

Text #30
ID : 32
Format : UTF-8
Codec ID : S_TEXT/UTF8
Codec ID/Info : UTF-8 Plain Text
Duration : 2 h 25 min
Bit rate : 51 b/s
Frame rate : 0.206 FPS
Count of elements : 1800
Stream size : 54.6 KiB (0%)
Language : Portuguese
Default : No
Forced : No

Text #31
ID : 33
Format : UTF-8
Codec ID : S_TEXT/UTF8
Codec ID/Info : UTF-8 Plain Text
Duration : 2 h 17 min
Bit rate : 60 b/s
Frame rate : 0.248 FPS
Count of elements : 2036
Stream size : 60.5 KiB (0%)
Title : Brazilian
Language : Portuguese
Default : No
Forced : No

Text #32
ID : 34
Format : UTF-8
Codec ID : S_TEXT/UTF8
Codec ID/Info : UTF-8 Plain Text
Duration : 2 h 25 min
Bit rate : 51 b/s
Frame rate : 0.213 FPS
Count of elements : 1862
Stream size : 55.5 KiB (0%)
Title : Brazilian
Language : Portuguese
Default : No
Forced : No

Text #33
ID : 35
Format : UTF-8
Codec ID : S_TEXT/UTF8
Codec ID/Info : UTF-8 Plain Text
Duration : 2 h 17 min
Bit rate : 69 b/s
Frame rate : 0.301 FPS
Count of elements : 2480
Stream size : 69.6 KiB (0%)
Title : Brazilian (SDH)
Language : Portuguese
Default : No
Forced : No

Text #34
ID : 36
Format : UTF-8
Codec ID : S_TEXT/UTF8
Codec ID/Info : UTF-8 Plain Text
Duration : 2 h 25 min
Bit rate : 59 b/s
Frame rate : 0.204 FPS
Count of elements : 1784
Stream size : 63.6 KiB (0%)
Language : Romanian
Default : No
Forced : No

Text #35
ID : 37
Format : UTF-8
Codec ID : S_TEXT/UTF8
Codec ID/Info : UTF-8 Plain Text
Duration : 2 h 25 min
Bit rate : 82 b/s
Frame rate : 0.214 FPS
Count of elements : 1867
Stream size : 87.9 KiB (0%)
Language : Russian
Default : No
Forced : No

Text #36
ID : 38
Format : UTF-8
Codec ID : S_TEXT/UTF8
Codec ID/Info : UTF-8 Plain Text
Duration : 2 h 25 min
Bit rate : 49 b/s
Frame rate : 0.195 FPS
Count of elements : 1708
Stream size : 53.2 KiB (0%)
Language : Swedish
Default : No
Forced : No

Text #37
ID : 39
Format : UTF-8
Codec ID : S_TEXT/UTF8
Codec ID/Info : UTF-8 Plain Text
Duration : 2 h 25 min
Bit rate : 133 b/s
Frame rate : 0.214 FPS
Count of elements : 1869
Stream size : 143 KiB (0%)
Language : Thai
Default : No
Forced : No

Text #38
ID : 40
Format : UTF-8
Codec ID : S_TEXT/UTF8
Codec ID/Info : UTF-8 Plain Text
Duration : 2 h 25 min
Bit rate : 53 b/s
Frame rate : 0.178 FPS
Count of elements : 1556
Stream size : 57.2 KiB (0%)
Language : Turkish
Default : No
Forced : No

Text #39
ID : 41
Format : UTF-8
Codec ID : S_TEXT/UTF8
Codec ID/Info : UTF-8 Plain Text
Duration : 2 h 25 min
Bit rate : 85 b/s
Frame rate : 0.213 FPS
Count of elements : 1859
Stream size : 90.8 KiB (0%)
Language : Ukrainian
Default : No
Forced : No

Text #40
ID : 42
Format : UTF-8
Codec ID : S_TEXT/UTF8
Codec ID/Info : UTF-8 Plain Text
Duration : 2 h 25 min
Bit rate : 74 b/s
Frame rate : 0.210 FPS
Count of elements : 1834
Stream size : 79.8 KiB (0%)
Language : Vietnamese
Default : No
Forced : No

Text #41
ID : 43
Format : UTF-8
Codec ID : S_TEXT/UTF8
Codec ID/Info : UTF-8 Plain Text
Duration : 2 h 25 min
Bit rate : 48 b/s
Frame rate : 0.213 FPS
Count of elements : 1861
Stream size : 52.2 KiB (0%)
Title : 简体中字
Language : Chinese
Default : No
Forced : No

Text #42
ID : 44
Format : UTF-8
Codec ID : S_TEXT/UTF8
Codec ID/Info : UTF-8 Plain Text
Duration : 2 h 25 min
Bit rate : 55 b/s
Frame rate : 0.220 FPS
Count of elements : 1921
Stream size : 59.5 KiB (0%)
Title : 繁体中字
Language : Chinese
Default : No
Forced : No

资源速度为零或资源敏感被和谐时,推荐使用qBittorrent等下载软件,有条件的推荐115更好的下载软件!

下载地址:

游客,如果您要查看本帖隐藏内容请回复

游客,如果您要查看本帖隐藏内容请回复

游客,如果您要查看本帖隐藏内容请回复




上一篇:西线无战事 [简繁中字] (2022) 4K高清版本下载
下一篇:温德尔和怀尔德 [简繁中字] (2022) 4K高清版本下载
回复

使用道具 举报

51

主题

1578

帖子

4540

积分

4K家园VIP

Rank: 9Rank: 9Rank: 9

积分
4540
发表于 2022-11-7 21:04:48 来自手机 | 显示全部楼层
呵呵。。。
回复 支持 反对

使用道具 举报

主题

帖子

0

积分

新手上路

Rank: 1

积分
0
发表于 2022-11-28 06:43:51 | 显示全部楼层
回复

使用道具 举报

主题

帖子

0

积分

新手上路

Rank: 1

积分
0
发表于 7 天前 | 显示全部楼层
阿斯顿发送到发送到发送到发斯蒂芬法撒旦法
回复 支持 反对

使用道具 举报

您需要登录后才可以回帖 登录 | 立即注册

本版积分规则

精彩图文
Archiver|手机版|TAG|Sitemap|新帖|专题|联系我们:邮箱: 4kjia.com@gmail.com   

4k家园   ©2019