[4K电影] 中世纪 / Medieval (2022) 4K高清版本下载

[复制链接]

主题

帖子

0

积分

超级版主

Rank: 8Rank: 8

积分
0
 楼主| 发表于 2022-11-7 22:04:57 | 显示全部楼层 |阅读模式
中世纪.png

◎标  题 中世纪
◎译  名 扬·杰式卡 / Jan Zizka
◎片  名 Medieval
◎年  代 2022
◎产  地 捷克
◎类  别 剧情 / 动作 / 历史
◎语  言 英语
◎上映日期 2022-09-08(美国)
◎IMDb评分 5.9/10 from 3103 users 更新 : 2022-11-07
◎IMDb链接 https://www.imdb.com/title/tt8883486/
◎豆瓣评分 6.2/10 from 79 users 更新 : 2022-11-07
◎豆瓣链接 https://movie.douban.com/subject/30309633/
◎片  长 126分钟
◎导  演 彼得·雅克尔 Petr Jákl
◎编  剧 彼得·雅克尔 Petr Jákl / 马雷克·多布斯 Marek Dobes / 凯文·伯恩哈特 Kevin Bernhardt
◎演  员 本·福斯特 Ben Foster
       苏菲·洛 Sophie Lowe
       迈克尔·凯恩 Michael Caine
       蒂尔·施威格 Til Schweiger
       罗兰·默勒 Roland Møller
       马修·古迪 Matthew Goode
       威廉·莫斯里 William Moseley
       卡瑞尔·罗登 Karel Roden
       维尔纳·德恩 Werner Daehn
       文森兹·凯弗 Vinzenz Kiefer
       阿利斯泰尔·布拉默 Alistair Brammer
       马格努斯·萨缪尔森 Magnus Samuelsson
       克里斯托弗·瑞 Christopher Rygh
       盖伊·罗伯茨 Guy Roberts
       戴维·鲍尔斯 David Bowles
       詹妮弗·阿尔莫 Jennifer Armour
       扬·布达尔 Jan Budař
       凯文·伯恩哈特 Kevin Bernhardt
       肖恩·康纳·伦威克 Sean Connor Renwick
       翁德雷·维特希 Ondrej Vetchý
       马雷克·瓦苏特 Marek Vasut
       罗曼·塞博勒 Roman Sebrle
       布莱恩·卡斯佩 Brian Caspe
       菲利普·克莱因 Philip Klein
       卡捷琳娜·米罗娃 Katerina Mirová


◎简  介


  马修·古迪加盟历史动作片[中世纪]。本片由捷克导演彼得·雅克尔([食尸鬼])自编自导,卡司还有本·福斯特、蒂尔·施威格、迈克尔·凯恩。故事聚焦14世纪捷克民族英雄约翰·杰式卡(福斯特饰),他组建的改革大军曾抵抗条顿骑士团与神圣罗马帝国军队。古迪饰演匈牙利和克罗地亚国王西吉斯蒙德。

Video
ID : 1
Format : HEVC
Format/Info : High Efficiency Video Coding
Format profile : Main 10@L5@High
Codec ID : V_MPEGH/ISO/HEVC
Duration : 2 h 5 min
Bit rate : 12.0 Mb/s
Width : 3 824 pixels
Height : 1 592 pixels
Display aspect ratio : 2.40:1
Frame rate mode : Constant
Frame rate : 23.976 (24000/1001) FPS
Color space : YUV
Chroma subsampling : 4:2:0
Bit depth : 10 bits
Bits/(Pixel*Frame) : 0.082
Stream size : 10.5 GiB (97%)
Default : Yes
Forced : No
Color range : Limited
Color primaries : BT.709
Transfer characteristics : BT.709
Matrix coefficients : BT.709

Audio
ID : 2
Format : AC-3
Format/Info : Audio Coding 3
Commercial name : Dolby Digital
Codec ID : A_AC3
Duration : 2 h 5 min
Bit rate mode : Constant
Bit rate : 384 kb/s
Channel(s) : 6 channels
Channel layout : L R C LFE Ls Rs
Sampling rate : 48.0 kHz
Frame rate : 31.250 FPS (1536 SPF)
Compression mode : Lossy
Stream size : 345 MiB (3%)
Language : English
Service kind : Complete Main
Default : Yes
Forced : No

Text
ID : 3
Format : UTF-8
Codec ID : S_TEXT/UTF8
Codec ID/Info : UTF-8 Plain Text
Duration : 2 h 2 min
Bit rate : 33 b/s
Frame rate : 0.185 FPS
Count of elements : 1357
Stream size : 30.4 KiB (0%)
Title : English CC
Language : English
Default : No
Forced : No

Menu
00:00:00.000 : en:Chapter 01
00:03:16.196 : en:Chapter 02
00:17:52.864 : en:Chapter 03
00:30:56.481 : en:Chapter 04
00:45:00.158 : en:Chapter 05
00:56:12.831 : en:Chapter 06
01:11:41.843 : en:Chapter 07
01:25:37.512 : en:Chapter 08
01:38:50.430 : en:Chapter 09
01:52:26.913 : en:Chapter 10
01:58:44.541 : en:Chapter 11


资源速度为零或资源敏感被和谐时,推荐使用qBittorrent等下载软件,有条件的推荐115更好的下载软件!

下载地址:


游客,如果您要查看本帖隐藏内容请回复






上一篇:加布里埃尔·伊格莱西亚斯:蓬松哥主场秀 (2022) 4K高清版本
下一篇:逃跑 / Run (2020) 4K高清版本下载
回复

使用道具 举报

0

主题

1206

帖子

3632

积分

4K家园VIP

Rank: 9Rank: 9Rank: 9

积分
3632
发表于 2022-11-7 22:05:02 来自手机 | 显示全部楼层
感谢分享
回复 支持 反对

使用道具 举报

2

主题

1421

帖子

4083

积分

4K家园VIP

Rank: 9Rank: 9Rank: 9

积分
4083
发表于 2022-11-7 22:05:02 | 显示全部楼层
我也顶起出售广告位
回复 支持 反对

使用道具 举报

主题

帖子

104

积分

新手上路

Rank: 1

积分
104
发表于 2022-11-8 01:31:49 | 显示全部楼层
感谢分享
回复

使用道具 举报

主题

帖子

0

积分

新手上路

Rank: 1

积分
0
发表于 2022-11-8 09:15:37 | 显示全部楼层
多谢楼主分享。。
回复 支持 反对

使用道具 举报

0

主题

6

帖子

576

积分

4K家园VIP

Rank: 9Rank: 9Rank: 9

积分
576
发表于 2022-11-8 13:59:21 | 显示全部楼层
目前似乎还没有4K版本的字幕,1080P版本调整量很大,弄了好一阵放弃了
回复 支持 反对

使用道具 举报

主题

帖子

0

积分

4K家园VIP

Rank: 9Rank: 9Rank: 9

积分
0
发表于 2022-11-8 19:00:14 | 显示全部楼层
谢谢分享
回复

使用道具 举报

主题

帖子

0

积分

新手上路

Rank: 1

积分
0
发表于 2022-11-12 14:32:40 | 显示全部楼层
谢楼主分享!!!
回复 支持 反对

使用道具 举报

您需要登录后才可以回帖 登录 | 立即注册

本版积分规则

精彩图文
Archiver|手机版|TAG|Sitemap|新帖|专题|联系我们:邮箱: 4kjia.com@gmail.com   

4k家园   ©2019