[4K UHD 蓝光原盘] 魔鬼代言人(俄版)/The Devil's Advocate (1997)4K蓝光REMUX 版本下载

[复制链接]

主题

帖子

0

积分

超级版主

Rank: 8Rank: 8

积分
0
 楼主| 发表于 2022-11-8 19:34:53 | 显示全部楼层 |阅读模式
QQ图片20221108190006_副本.png

◎标  题 魔鬼代言人
◎译  名 追魂交易(港) / 火速大行动
◎片  名 The Devil's Advocate
◎年  代 1997
◎产  地 美国 / 德国
◎类  别 剧情 / 悬疑 / 惊悚
◎语  言 英语 / 德语 / 意大利语 / 粤语 / 西班牙语
◎上映日期 1997-10-17(美国) / 1998-01-22(德国)
◎IMDb评分 7.5/10 from 372190 users 更新 : 2022-11-07
◎IMDb链接 https://www.imdb.com/title/tt0118971/
◎豆瓣评分 8.4/10 from 151743 users 更新 : 2022-11-07
◎豆瓣链接 https://movie.douban.com/subject/1298909/
◎片  长 144分钟
◎导  演 泰勒·海克福德 Taylor Hackford
◎编  剧 乔纳森·勒姆金 Jonathan Lemkin / 托尼·吉尔罗伊 Tony Gilroy / 安德鲁·内德曼 Andrew Neiderman
◎演  员 基努·里维斯 Keanu Reeves
       阿尔·帕西诺 Al Pacino
       查理兹·塞隆 Charlize Theron
       杰弗瑞·琼斯 Jeffrey Jones
       朱迪思·爱薇 Judith Ivey
       康妮·尼尔森 Connie Nielsen
       格雷格·T·尼尔森 Craig T. Nelson
       塔马拉·图尼 Tamara Tunie
       鲁本·桑地亚哥-哈德森 Ruben Santiago-Hudson
       戴布拉·莫克 Debra Monk
       维托·鲁吉尼斯 Vyto Ruginis
       劳拉·哈灵顿 Laura Harrington
       帕米拉·格雷 Pamela Gray
       乔治·维内尔 George Wyner
       克里斯·鲍尔 Chris Bauer
       约翰·罗斯曼 John Rothman
       希瑟·玛塔拉佐 Heather Matarazzo
       德尔罗伊·林多 Delroy Lindo
       莫尼卡·凯娜 Monica Keena
       Kim Chan Kim Chan
       唐·金 Don King
       卡普里切·贝内德蒂 Caprice Benedetti
       Bill Boggs Bill Boggs
       Ernie Grunfeld Ernie Grunfeld
       Alfonse D'amato Alfonse D'amato
       比尔·穆尔 Bill Moor
       里奥·伯梅斯特 Leo Burmester
       Anibal O. Lleras Anibal O. Lleras
       迈克尔·隆巴德 Michael Lombard
       艾伦·曼森 Alan Manson


◎简  介


  凯文(Keanu Reeves饰)是个保持不败记录的年轻律师,娇妻相伴,事业有为的他宛如生活在天堂一般。受到纽约著名事务所的邀请,他携妻子来到纽约。奢华的生活近在眼前,一切似乎都昭示着明天的坦途与光明。
老板米尔顿(Al Pacino饰)对凯文非常赏识,不断地委以重任,同时也带他见识了五光十色的世界。面临着工作的压力和色情,名利各个方面的诱惑,凯文渐渐的迷失在生活中,甚至忽视了妻子精神上的反常。直到失常的妻子自刎在他的臂弯中,凯文才猛然意识到身边的危机。
凯文愤怒的指责米尔顿给他设下陷阱。然而,究竟是魔鬼的诱惑还是内心的虚荣将凯文引向今日的迷雾与深渊?自由意志下凯文又会做出怎样的抉择?

Video
ID : 1
Format : HEVC
Format/Info : High Efficiency Video Coding
Format profile : Main@L5.2@Main
Codec ID : V_MPEGH/ISO/HEVC
Duration : 2 h 23 min
Bit rate : 62.7 Mb/s
Width : 3 840 pixels
Height : 2 160 pixels
Display aspect ratio : 16:9
Frame rate mode : Constant
Frame rate : 23.976 (24000/1001) FPS
Color space : YUV
Chroma subsampling : 4:2:0
Bit depth : 8 bits
Bits/(Pixel*Frame) : 0.315
Stream size : 63.1 GiB (79%)
Language : English
Default : Yes
Forced : No


Audio #1
ID : 2
Format : AC-3
Format/Info : Audio Coding 3
Commercial name : Dolby Digital
Codec ID : A_AC3
Duration : 2 h 23 min
Bit rate mode : Constant
Bit rate : 384 kb/s
Channel(s) : 6 channels
Channel layout : L R C LFE Ls Rs
Sampling rate : 48.0 kHz
Frame rate : 31.250 FPS (1536 SPF)
Compression mode : Lossy
Stream size : 395 MiB (0%)
Title : Дубляж, R
Language : Russian
Service kind : Complete Main
Default : Yes
Forced : Yes


Audio #2
ID : 3
Format : DTS XLL
Format/Info : Digital Theater Systems
Commercial name : DTS-HD Master Audio
Codec ID : A_DTS
Duration : 2 h 23 min
Bit rate mode : Variable
Bit rate : 3 723 kb/s
Channel(s) : 6 channels
Channel layout : C L R Ls Rs LFE
Sampling rate : 48.0 kHz
Frame rate : 93.750 FPS (512 SPF)
Bit depth : 24 bits
Compression mode : Lossless
Stream size : 3.74 GiB (5%)
Title : Многоголосый закадровый, Карусель
Language : Russian
Default : No
Forced : No


Audio #3
ID : 4
Format : DTS XLL
Format/Info : Digital Theater Systems
Commercial name : DTS-HD Master Audio
Codec ID : A_DTS
Duration : 2 h 23 min
Bit rate mode : Variable
Bit rate : 3 722 kb/s
Channel(s) : 6 channels
Channel layout : C L R Ls Rs LFE
Sampling rate : 48.0 kHz
Frame rate : 93.750 FPS (512 SPF)
Bit depth : 24 bits
Compression mode : Lossless
Stream size : 3.74 GiB (5%)
Title : Одноголосый закадровый, А.Гаврилов
Language : Russian
Default : No
Forced : No


Audio #4
ID : 5
Format : DTS XLL
Format/Info : Digital Theater Systems
Commercial name : DTS-HD Master Audio
Codec ID : A_DTS
Duration : 2 h 23 min
Bit rate mode : Variable
Bit rate : 3 707 kb/s
Channel(s) : 6 channels
Channel layout : C L R Ls Rs LFE
Sampling rate : 48.0 kHz
Frame rate : 93.750 FPS (512 SPF)
Bit depth : 24 bits
Compression mode : Lossless
Stream size : 3.73 GiB (5%)
Title : Одноголосый закадровый, Ю.Живов
Language : Russian
Default : No
Forced : No


Audio #5
ID : 6
Format : AC-3
Format/Info : Audio Coding 3
Commercial name : Dolby Digital
Codec ID : A_AC3
Duration : 2 h 23 min
Bit rate mode : Constant
Bit rate : 192 kb/s
Channel(s) : 2 channels
Channel layout : L R
Sampling rate : 48.0 kHz
Frame rate : 31.250 FPS (1536 SPF)
Compression mode : Lossy
Stream size : 198 MiB (0%)
Title : Многоголосый закадровый, НТВ
Language : Russian
Service kind : Complete Main
Default : No
Forced : No


Audio #6
ID : 7
Format : AC-3
Format/Info : Audio Coding 3
Commercial name : Dolby Digital
Codec ID : A_AC3
Duration : 2 h 23 min
Bit rate mode : Constant
Bit rate : 192 kb/s
Channel(s) : 2 channels
Channel layout : L R
Sampling rate : 48.0 kHz
Frame rate : 31.250 FPS (1536 SPF)
Compression mode : Lossy
Stream size : 198 MiB (0%)
Title : Многоголосый закадровый, Телеканал Россия
Language : Russian
Service kind : Complete Main
Default : No
Forced : No


Audio #7
ID : 8
Format : AC-3
Format/Info : Audio Coding 3
Commercial name : Dolby Digital
Codec ID : A_AC3
Duration : 2 h 23 min
Bit rate mode : Constant
Bit rate : 192 kb/s
Channel(s) : 2 channels
Channel layout : L R
Sampling rate : 48.0 kHz
Frame rate : 31.250 FPS (1536 SPF)
Compression mode : Lossy
Stream size : 198 MiB (0%)
Title : Двухголосый закадровый, ТВ1000
Language : Russian
Service kind : Complete Main
Default : No
Forced : No


Audio #8
ID : 9
Format : AC-3
Format/Info : Audio Coding 3
Commercial name : Dolby Digital
Codec ID : A_AC3
Duration : 2 h 23 min
Bit rate mode : Constant
Bit rate : 192 kb/s
Channel(s) : 2 channels
Channel layout : L R
Sampling rate : 48.0 kHz
Frame rate : 31.250 FPS (1536 SPF)
Compression mode : Lossy
Stream size : 198 MiB (0%)
Title : Одноголосый закадровый, С.Визгунов
Language : Russian
Service kind : Complete Main
Default : No
Forced : No


Audio #9
ID : 10
Format : AC-3
Format/Info : Audio Coding 3
Commercial name : Dolby Digital
Codec ID : A_AC3
Duration : 2 h 23 min
Bit rate mode : Constant
Bit rate : 384 kb/s
Channel(s) : 6 channels
Channel layout : L R C LFE Ls Rs
Sampling rate : 48.0 kHz
Frame rate : 31.250 FPS (1536 SPF)
Compression mode : Lossy
Stream size : 395 MiB (0%)
Title : Одноголосый закадровый, В.Завгородний
Language : Russian
Service kind : Complete Main
Default : No
Forced : No


Audio #10
ID : 11
Format : AC-3
Format/Info : Audio Coding 3
Commercial name : Dolby Digital
Codec ID : A_AC3
Duration : 2 h 23 min
Bit rate mode : Constant
Bit rate : 192 kb/s
Channel(s) : 2 channels
Channel layout : L R
Sampling rate : 48.0 kHz
Frame rate : 31.250 FPS (1536 SPF)
Compression mode : Lossy
Stream size : 198 MiB (0%)
Title : Одноголосый закадровый, М.Латышев
Language : Russian
Service kind : Complete Main
Default : No
Forced : No


Audio #11
ID : 12
Format : DTS XLL
Format/Info : Digital Theater Systems
Commercial name : DTS-HD Master Audio
Codec ID : A_DTS
Duration : 2 h 23 min
Bit rate mode : Variable
Bit rate : 3 692 kb/s
Channel(s) : 6 channels
Channel layout : C L R Ls Rs LFE
Sampling rate : 48.0 kHz
Frame rate : 93.750 FPS (512 SPF)
Bit depth : 24 bits
Compression mode : Lossless
Stream size : 3.71 GiB (5%)
Language : English
Default : No
Forced : No


Audio #12
ID : 13
Format : AC-3
Format/Info : Audio Coding 3
Commercial name : Dolby Digital
Format settings : Dolby Surround
Codec ID : A_AC3
Duration : 2 h 23 min
Bit rate mode : Constant
Bit rate : 192 kb/s
Channel(s) : 2 channels
Channel layout : L R
Sampling rate : 48.0 kHz
Frame rate : 31.250 FPS (1536 SPF)
Compression mode : Lossy
Stream size : 198 MiB (0%)
Language : English
Service kind : Complete Main
Default : No
Forced : No


Text #1
ID : 14
Format : PGS
Muxing mode : zlib
Codec ID : S_HDMV/PGS
Codec ID/Info : Picture based subtitle format used on BDs/HD-DVDs
Duration : 2 h 23 min
Bit rate : 40.2 kb/s
Frame rate : 0.555 FPS
Count of elements : 4762
Stream size : 41.2 MiB (0%)
Language : English
Default : No
Forced : No


Text #2
ID : 15
Format : PGS
Muxing mode : zlib
Codec ID : S_HDMV/PGS
Codec ID/Info : Picture based subtitle format used on BDs/HD-DVDs
Duration : 2 h 16 min
Bit rate : 28.1 kb/s
Frame rate : 0.533 FPS
Count of elements : 4378
Stream size : 27.5 MiB (0%)
Language : Russian
Default : No
Forced : No


Text #3
ID : 16
Format : PGS
Muxing mode : zlib
Codec ID : S_HDMV/PGS
Codec ID/Info : Picture based subtitle format used on BDs/HD-DVDs
Duration : 2 h 16 min
Bit rate : 29.0 kb/s
Frame rate : 0.531 FPS
Count of elements : 4364
Stream size : 28.4 MiB (0%)
Language : Russian
Default : No
Forced : No


Text #4
ID : 17
Format : PGS
Muxing mode : zlib
Codec ID : S_HDMV/PGS
Codec ID/Info : Picture based subtitle format used on BDs/HD-DVDs
Duration : 31 s 698 ms
Bit rate : 46.3 kb/s
Frame rate : 0.631 FPS
Count of elements : 20
Stream size : 179 KiB (0%)
Language : Russian
Default : No
Forced : No
新种推荐使用qBittorrent、uTorrent、BitComet等下载软件,有条件的推荐115更好的下载软件!

魔鬼代言人(79.96GB) The Devil's Advocate.1997.UNRATED.BluRay.REMUX.AI_UPSCALE_3840x2160_prob-3_SDR_ALANG-【2160P蓝光REMUX】
****此区域为收费内容****    需支付 30 金币后可查看立即购买


DIY简繁版本稍后分享,制作中...请关注本主题,谢谢!


4K海报.gif


上一篇:女王神剑 / Red Sonja (1985) 4K蓝光[原盘+REMUX]版本下载
下一篇:【首发】魔鬼代言人(DIY简繁中字] (1997) 4K蓝光REMUX版本下载
回复

使用道具 举报

46

主题

1524

帖子

4408

积分

4K家园VIP

Rank: 9Rank: 9Rank: 9

积分
4408
发表于 2022-11-8 19:34:54 | 显示全部楼层
前排顶起
回复 支持 反对

使用道具 举报

50

主题

1525

帖子

4347

积分

4K家园VIP

Rank: 9Rank: 9Rank: 9

积分
4347
发表于 2022-11-8 23:32:06 | 显示全部楼层
楼主这资源不错,我收藏了
回复 支持 反对

使用道具 举报

主题

帖子

0

积分

新手上路

Rank: 1

积分
0
发表于 2022-11-9 11:54:02 | 显示全部楼层
谢谢楼主分享
回复 支持 反对

使用道具 举报

40

主题

1544

帖子

4448

积分

4K家园VIP

Rank: 9Rank: 9Rank: 9

积分
4448
发表于 2022-11-10 00:01:26 来自手机 | 显示全部楼层
你们要是有4K资源记得分享,别小气
回复 支持 反对

使用道具 举报

55

主题

1581

帖子

4575

积分

4K家园VIP

Rank: 9Rank: 9Rank: 9

积分
4575
发表于 2022-11-12 12:20:29 | 显示全部楼层
多发些资源啊
回复 支持 反对

使用道具 举报

主题

帖子

0

积分

新手上路

Rank: 1

积分
0
发表于 2022-11-20 14:56:59 | 显示全部楼层
回复

使用道具 举报

您需要登录后才可以回帖 登录 | 立即注册

本版积分规则

精彩图文
Archiver|手机版|TAG|Sitemap|新帖|专题|联系我们:邮箱: 4kjia.com@gmail.com   

4k家园   ©2019