[4K电影] 逃跑 / Run (2020) 4K高清版本下载

[复制链接]

主题

帖子

0

积分

超级版主

Rank: 8Rank: 8

积分
0
 楼主| 发表于 2022-11-8 20:46:54 | 显示全部楼层 |阅读模式
QQ图片20221108204012_副本.png

◎标  题 逃跑
◎译  名 逃(台) / 疑·妈(港) / 跑
◎片  名 Run
◎年  代 2020
◎产  地 美国
◎类  别 悬疑 / 惊悚 / 恐怖
◎语  言 英语
◎上映日期 2020-11-20(美国网络)
◎IMDb评分 6.7/10 from 79075 users 更新 : 2022-11-05
◎IMDb链接 https://www.imdb.com/title/tt8633478/
◎豆瓣评分 6.8/10 from 13019 users 更新 : 2022-11-05
◎豆瓣链接 https://movie.douban.com/subject/30243396/
◎片  长 90分钟
◎导  演 阿尼什·查甘蒂 Aneesh Chaganty
◎编  剧 阿尼什·查甘蒂 Aneesh Chaganty / 赛弗·奥哈尼安 Sev Ohanian
◎演  员 莎拉·保罗森 Sarah Paulson
       基拉·艾伦 Kiera Allen
       帕特·希利 Pat Healy
       埃里克·阿塔瓦尔 Erik Athavale
       布拉德利·索茨基 Bradley Sawatzky
       奥娜莉·艾姆斯 Onalee Ames
       德里克·詹姆斯·特拉普 Derek James Trapp
       萨拉·米博·孙 Sara Mibo Sohn

◎简  介

  克洛伊(基拉·艾伦 Kiera Allen 饰)从一出生起就和母亲(莎拉·保罗森 Sarah Paulson 饰)过着相依为命的生活,在她们的世界里,父亲这一角色是从未存在过,也不可提及的。因为早产,克洛伊的健康面临着非常严重的打击,时时刻刻都在遭受着死亡的威胁,可即便如此,母亲也从未放弃过克洛伊,她凭借着自己坚强的力量将克洛伊抚养长大。
克洛伊体弱多病,半身不遂只能依靠轮椅行动,母亲是她和外界唯一的联系,在母亲的帮助之下,克洛伊靠着自学参加了大学的入学考试,正在焦急的等待着考试结果的公布。某日,克洛伊对自己每天都要服用的药物产生了怀疑,通过种种调查,她震惊的发现这些药物正是导致自己无法行走的元凶。

Video
ID : 1
Format : HEVC
Format/Info : High Efficiency Video Coding
Format profile : Main 10@L5.1@Main
HDR format : Dolby Vision, Version 1.0, dvhe.08.06, BL+RPU, HDR10 compatible / SMPTE ST 2094 App 4, Version 1, HDR10+ Profile B compatible
Codec ID : V_MPEGH/ISO/HEVC
Duration : 1 h 29 min
Bit rate : 14.9 Mb/s
Width : 3 840 pixels
Height : 2 160 pixels
Display aspect ratio : 16:9
Frame rate mode : Constant
Frame rate : 23.976 (24000/1001) FPS
Color space : YUV
Chroma subsampling : 4:2:0 (Type 2)
Bit depth : 10 bits
Bits/(Pixel*Frame) : 0.075
Stream size : 9.29 GiB (88%)
Language : English
Default : Yes
Forced : No
Color range : Limited
Color primaries : BT.2020
Transfer characteristics : PQ
Matrix coefficients : BT.2020 non-constant
Mastering display color primaries : Display P3
Mastering display luminance : min: 0.0001 cd/m2, max: 1000 cd/m2
Maximum Content Light Level : 1000 cd/m2
Maximum Frame-Average Light Level : 97 cd/m2

Audio #1
ID : 2
Format : DTS XLL
Format/Info : Digital Theater Systems
Commercial name : DTS-HD Master Audio
Codec ID : A_DTS
Duration : 1 h 29 min
Bit rate mode : Variable
Bit rate : 1 725 kb/s
Channel(s) : 6 channels
Channel layout : C L R Ls Rs LFE
Sampling rate : 48.0 kHz
Frame rate : 93.750 FPS (512 SPF)
Bit depth : 16 bits
Compression mode : Lossless
Stream size : 1.08 GiB (10%)
Title : DTS-HD MA 5.1
Language : English
Default : Yes
Forced : No

Audio #2
ID : 3
Format : E-AC-3
Format/Info : Enhanced AC-3
Commercial name : Dolby Digital Plus
Codec ID : A_EAC3
Duration : 1 h 29 min
Bit rate mode : Constant
Bit rate : 256 kb/s
Channel(s) : 6 channels
Channel layout : L R C LFE Ls Rs
Sampling rate : 48.0 kHz
Frame rate : 31.250 FPS (1536 SPF)
Compression mode : Lossy
Stream size : 164 MiB (2%)
Title : DDP 5.1
Language : English
Service kind : Complete Main
Default : No
Forced : No

Text #1
ID : 4
Format : UTF-8
Codec ID : S_TEXT/UTF8
Codec ID/Info : UTF-8 Plain Text
Duration : 1 h 24 min
Bit rate : 28 b/s
Frame rate : 0.127 FPS
Count of elements : 639
Stream size : 17.4 KiB (0%)
Language : English
Default : Yes
Forced : No

Text #2
ID : 5
Format : UTF-8
Codec ID : S_TEXT/UTF8
Codec ID/Info : UTF-8 Plain Text
Duration : 1 h 25 min
Bit rate : 34 b/s
Frame rate : 0.163 FPS
Count of elements : 839
Stream size : 21.8 KiB (0%)
Title : SDH
Language : English
Default : No
Forced : No

Text #3
ID : 6
Format : UTF-8
Codec ID : S_TEXT/UTF8
Codec ID/Info : UTF-8 Plain Text
Duration : 1 h 24 min
Bit rate : 28 b/s
Frame rate : 0.138 FPS
Count of elements : 698
Stream size : 17.6 KiB (0%)
Language : Spanish
Default : No
Forced : No

Menu
00:00:00.000 : en:Chapter 01
00:20:13.200 : en:Chapter 02
01:10:53.230 : en:Chapter 03
01:24:45.070 : en:Credits


资源速度为零或资源敏感被和谐时,推荐使用qBittorrent等下载软件,有条件的推荐115更好的下载软件!

下载地址:


游客,如果您要查看本帖隐藏内容请回复








上一篇:中世纪 / Medieval (2022) 4K高清版本下载
下一篇:蕾哈娜内衣秀4 [简繁中字] (2022) 4K高清版本下载
回复

使用道具 举报

2

主题

1460

帖子

4232

积分

4K家园VIP

Rank: 9Rank: 9Rank: 9

积分
4232
发表于 2022-11-8 20:46:59 | 显示全部楼层
路过 帮顶 嘿嘿
回复 支持 反对

使用道具 举报

主题

帖子

34

积分

新手上路

Rank: 1

积分
34
发表于 2022-11-9 17:34:54 | 显示全部楼层
路过 看看
回复

使用道具 举报

您需要登录后才可以回帖 登录 | 立即注册

本版积分规则

精彩图文
Archiver|手机版|TAG|Sitemap|新帖|专题|联系我们:邮箱: 4kjia.com@gmail.com   

4k家园   ©2019