[4K电影] 蕾哈娜内衣秀4 [简繁中字] (2022) 4K高清版本下载

[复制链接]

主题

帖子

0

积分

超级版主

Rank: 8Rank: 8

积分
0
 楼主| 发表于 2022-11-9 19:50:27 | 显示全部楼层 |阅读模式

QQ图片20221109193701_副本.png

◎译  名 蕾哈娜内衣秀
◎片  名 Savage X Fenty Show Vol. 4
◎年  代 2022
◎产  地 美国
◎类  别 纪录片 / 音乐
◎语  言 英语
◎上映日期 2022-11-09(美国)
◎IMDb评分 0/10 from 0 users
◎IMDb链接 https://www.imdb.com/title/tt22778190/

◎豆瓣评分 0/10 from 0 users
◎豆瓣链接 https://movie.douban.com/subject/36125104/
◎导  演 艾力克斯·鲁津斯基 Alex Rudzinski
◎主  演 蕾哈娜 Rihanna
                   卡拉·迪瓦伊 Cara Delevingne   
                   温斯顿公爵 Winston Duke
                   谢丽尔·李·拉尔夫 Sheryl Lee Ralph
                   塔拉吉P·汉森Taraji P. Henson
                   刘思慕 Simu Liu
                   马赛·马丁 Marsai Martin
                   安妮塔 Anitta
                   伯纳男孩 Burna Boy
                   卡拉·德莱文涅 Cara Delevingne
                   阿瓦尼·格雷格 Avani Gregg
                   达姆森·伊德里斯 Damson Idris
                   Kornbread Jete Kornbread Jete
                   Precious Lee Precious Lee
                   安吉拉·阿吉拉尔 Ángela Aguilar
                   麦克斯韦 Maxwell
                   扎克·米科 Zach Miko
                   贝拉·波亚奇 Bella Poarch



◎简  介



         在第四年,一年一度的时尚体验有望打破由模特、演员和音乐界大腕组成的全新全明星阵容的界限。蕾哈娜首次亮相最新的Savage X Fenty风格,融合了明星编舞、风格和音乐。

Video
ID : 1
Format : HEVC
Format/Info : High Efficiency Video Coding
Format profile : Main 10@L5@Main
HDR format : SMPTE ST 2094 App 4, Version 1, HDR10+ Profile B compatible
Codec ID : V_MPEGH/ISO/HEVC
Duration : 40 min 33 s
Bit rate : 14.5 Mb/s
Width : 3 840 pixels
Height : 1 920 pixels
Display aspect ratio : 2.000
Frame rate mode : Constant
Frame rate : 23.976 (24000/1001) FPS
Color space : YUV
Chroma subsampling : 4:2:0
Bit depth : 10 bits
Bits/(Pixel*Frame) : 0.082
Stream size : 4.11 GiB (96%)
Language : English
Default : Yes
Forced : No
Color range : Limited
Color primaries : BT.2020
Transfer characteristics : PQ
Matrix coefficients : BT.2020 non-constant
Mastering display color primaries : Display P3
Mastering display luminance : min: 0.0001 cd/m2, max: 1000 cd/m2
Maximum Content Light Level : 1000 cd/m2
Maximum Frame-Average Light Level : 103 cd/m2

Audio
ID : 2
Format : E-AC-3
Format/Info : Enhanced AC-3
Commercial name : Dolby Digital Plus
Codec ID : A_EAC3
Duration : 40 min 33 s
Bit rate mode : Constant
Bit rate : 640 kb/s
Channel(s) : 6 channels
Channel layout : L R C LFE Ls Rs
Sampling rate : 48.0 kHz
Frame rate : 31.250 FPS (1536 SPF)
Compression mode : Lossy
Stream size : 186 MiB (4%)
Language : English
Service kind : Complete Main
Default : Yes
Forced : No

Text #1
ID : 3
Format : UTF-8
Codec ID : S_TEXT/UTF8
Codec ID/Info : UTF-8 Plain Text
Duration : 38 s 79 ms
Bit rate : 114 b/s
Frame rate : 0.473 FPS
Count of elements : 18
Stream size : 545 Bytes (0%)
Language : English
Default : No
Forced : No

Text #2
ID : 4
Format : UTF-8
Codec ID : S_TEXT/UTF8
Codec ID/Info : UTF-8 Plain Text
Duration : 39 min 5 s
Bit rate : 2 b/s
Frame rate : 0.026 FPS
Count of elements : 60
Stream size : 839 Bytes (0%)
Title : SDH
Language : English
Default : No
Forced : No

Text #3
ID : 5
Format : UTF-8
Codec ID : S_TEXT/UTF8
Codec ID/Info : UTF-8 Plain Text
Duration : 40 min 19 s
Bit rate : 4 b/s
Frame rate : 0.009 FPS
Count of elements : 22
Stream size : 1.24 KiB (0%)
Language : Arabic
Default : No
Forced : No

Text #4
ID : 6
Format : UTF-8
Codec ID : S_TEXT/UTF8
Codec ID/Info : UTF-8 Plain Text
Duration : 40 min 19 s
Bit rate : 2 b/s
Frame rate : 0.008 FPS
Count of elements : 19
Stream size : 808 Bytes (0%)
Language : Czech
Default : No
Forced : No

Text #5
ID : 7
Format : UTF-8
Codec ID : S_TEXT/UTF8
Codec ID/Info : UTF-8 Plain Text
Duration : 40 min 19 s
Bit rate : 2 b/s
Frame rate : 0.008 FPS
Count of elements : 19
Stream size : 704 Bytes (0%)
Language : Danish
Default : No
Forced : No

Text #6
ID : 8
Format : UTF-8
Codec ID : S_TEXT/UTF8
Codec ID/Info : UTF-8 Plain Text
Duration : 40 min 19 s
Bit rate : 2 b/s
Frame rate : 0.008 FPS
Count of elements : 19
Stream size : 809 Bytes (0%)
Language : German
Default : No
Forced : No

Text #7
ID : 9
Format : UTF-8
Codec ID : S_TEXT/UTF8
Codec ID/Info : UTF-8 Plain Text
Duration : 40 min 19 s
Bit rate : 4 b/s
Frame rate : 0.008 FPS
Count of elements : 19
Stream size : 1.22 KiB (0%)
Language : Greek
Default : No
Forced : No

Text #8
ID : 10
Format : UTF-8
Codec ID : S_TEXT/UTF8
Codec ID/Info : UTF-8 Plain Text
Duration : 40 min 19 s
Bit rate : 2 b/s
Frame rate : 0.009 FPS
Count of elements : 21
Stream size : 814 Bytes (0%)
Title : Latin American
Language : Spanish
Default : No
Forced : No

Text #9
ID : 11
Format : UTF-8
Codec ID : S_TEXT/UTF8
Codec ID/Info : UTF-8 Plain Text
Duration : 40 min 19 s
Bit rate : 2 b/s
Frame rate : 0.008 FPS
Count of elements : 19
Stream size : 752 Bytes (0%)
Language : Spanish
Default : No
Forced : No

Text #10
ID : 12
Format : UTF-8
Codec ID : S_TEXT/UTF8
Codec ID/Info : UTF-8 Plain Text
Duration : 40 min 19 s
Bit rate : 2 b/s
Frame rate : 0.008 FPS
Count of elements : 19
Stream size : 636 Bytes (0%)
Language : Finnish
Default : No
Forced : No

Text #11
ID : 13
Format : UTF-8
Codec ID : S_TEXT/UTF8
Codec ID/Info : UTF-8 Plain Text
Duration : 40 min 19 s
Bit rate : 2 b/s
Frame rate : 0.008 FPS
Count of elements : 19
Stream size : 820 Bytes (0%)
Language : fil
Default : No
Forced : No

Text #12
ID : 14
Format : UTF-8
Codec ID : S_TEXT/UTF8
Codec ID/Info : UTF-8 Plain Text
Duration : 40 min 19 s
Bit rate : 2 b/s
Frame rate : 0.008 FPS
Count of elements : 19
Stream size : 727 Bytes (0%)
Language : French
Default : No
Forced : No

Text #13
ID : 15
Format : UTF-8
Codec ID : S_TEXT/UTF8
Codec ID/Info : UTF-8 Plain Text
Duration : 40 min 19 s
Bit rate : 4 b/s
Frame rate : 0.009 FPS
Count of elements : 22
Stream size : 1.24 KiB (0%)
Language : Hebrew
Default : No
Forced : No

Text #14
ID : 16
Format : UTF-8
Codec ID : S_TEXT/UTF8
Codec ID/Info : UTF-8 Plain Text
Duration : 40 min 19 s
Bit rate : 6 b/s
Frame rate : 0.009 FPS
Count of elements : 22
Stream size : 1.94 KiB (0%)
Language : Hindi
Default : No
Forced : No

Text #15
ID : 17
Format : UTF-8
Codec ID : S_TEXT/UTF8
Codec ID/Info : UTF-8 Plain Text
Duration : 40 min 19 s
Bit rate : 2 b/s
Frame rate : 0.008 FPS
Count of elements : 19
Stream size : 795 Bytes (0%)
Language : Hungarian
Default : No
Forced : No

Text #16
ID : 18
Format : UTF-8
Codec ID : S_TEXT/UTF8
Codec ID/Info : UTF-8 Plain Text
Duration : 40 min 19 s
Bit rate : 2 b/s
Frame rate : 0.008 FPS
Count of elements : 19
Stream size : 697 Bytes (0%)
Language : Indonesian
Default : No
Forced : No

Text #17
ID : 19
Format : UTF-8
Codec ID : S_TEXT/UTF8
Codec ID/Info : UTF-8 Plain Text
Duration : 40 min 19 s
Bit rate : 2 b/s
Frame rate : 0.008 FPS
Count of elements : 19
Stream size : 760 Bytes (0%)
Language : Italian
Default : No
Forced : No

Text #18
ID : 20
Format : UTF-8
Codec ID : S_TEXT/UTF8
Codec ID/Info : UTF-8 Plain Text
Duration : 40 min 19 s
Bit rate : 2 b/s
Frame rate : 0.008 FPS
Count of elements : 19
Stream size : 683 Bytes (0%)
Language : Japanese
Default : No
Forced : No

Text #19
ID : 21
Format : UTF-8
Codec ID : S_TEXT/UTF8
Codec ID/Info : UTF-8 Plain Text
Duration : 40 min 19 s
Bit rate : 2 b/s
Frame rate : 0.009 FPS
Count of elements : 22
Stream size : 874 Bytes (0%)
Language : Korean
Default : No
Forced : No

Text #20
ID : 22
Format : UTF-8
Codec ID : S_TEXT/UTF8
Codec ID/Info : UTF-8 Plain Text
Duration : 40 min 19 s
Bit rate : 2 b/s
Frame rate : 0.008 FPS
Count of elements : 19
Stream size : 648 Bytes (0%)
Language : Malay
Default : No
Forced : No

Text #21
ID : 23
Format : UTF-8
Codec ID : S_TEXT/UTF8
Codec ID/Info : UTF-8 Plain Text
Duration : 40 min 19 s
Bit rate : 2 b/s
Frame rate : 0.008 FPS
Count of elements : 19
Stream size : 728 Bytes (0%)
Language : Norwegian Bokmal
Default : No
Forced : No

Text #22
ID : 24
Format : UTF-8
Codec ID : S_TEXT/UTF8
Codec ID/Info : UTF-8 Plain Text
Duration : 40 min 19 s
Bit rate : 2 b/s
Frame rate : 0.008 FPS
Count of elements : 19
Stream size : 778 Bytes (0%)
Language : Dutch
Default : No
Forced : No

Text #23
ID : 25
Format : UTF-8
Codec ID : S_TEXT/UTF8
Codec ID/Info : UTF-8 Plain Text
Duration : 40 min 19 s
Bit rate : 2 b/s
Frame rate : 0.008 FPS
Count of elements : 19
Stream size : 772 Bytes (0%)
Language : Polish
Default : No
Forced : No

Text #24
ID : 26
Format : UTF-8
Codec ID : S_TEXT/UTF8
Codec ID/Info : UTF-8 Plain Text
Duration : 40 min 19 s
Bit rate : 2 b/s
Frame rate : 0.008 FPS
Count of elements : 19
Stream size : 720 Bytes (0%)
Title : Brazilian
Language : Portuguese
Default : No
Forced : No

Text #25
ID : 27
Format : UTF-8
Codec ID : S_TEXT/UTF8
Codec ID/Info : UTF-8 Plain Text
Duration : 40 min 19 s
Bit rate : 2 b/s
Frame rate : 0.008 FPS
Count of elements : 19
Stream size : 766 Bytes (0%)
Language : Portuguese
Default : No
Forced : No

Text #26
ID : 28
Format : UTF-8
Codec ID : S_TEXT/UTF8
Codec ID/Info : UTF-8 Plain Text
Duration : 40 min 19 s
Bit rate : 2 b/s
Frame rate : 0.008 FPS
Count of elements : 19
Stream size : 669 Bytes (0%)
Language : Romanian
Default : No
Forced : No

Text #27
ID : 29
Format : UTF-8
Codec ID : S_TEXT/UTF8
Codec ID/Info : UTF-8 Plain Text
Duration : 40 min 19 s
Bit rate : 4 b/s
Frame rate : 0.009 FPS
Count of elements : 22
Stream size : 1.33 KiB (0%)
Language : Russian
Default : No
Forced : No

Text #28
ID : 30
Format : UTF-8
Codec ID : S_TEXT/UTF8
Codec ID/Info : UTF-8 Plain Text
Duration : 40 min 19 s
Bit rate : 2 b/s
Frame rate : 0.008 FPS
Count of elements : 19
Stream size : 628 Bytes (0%)
Language : Swedish
Default : No
Forced : No

Text #29
ID : 31
Format : UTF-8
Codec ID : S_TEXT/UTF8
Codec ID/Info : UTF-8 Plain Text
Duration : 40 min 19 s
Bit rate : 7 b/s
Frame rate : 0.009 FPS
Count of elements : 22
Stream size : 2.13 KiB (0%)
Language : Tamil
Default : No
Forced : No

Text #30
ID : 32
Format : UTF-8
Codec ID : S_TEXT/UTF8
Codec ID/Info : UTF-8 Plain Text
Duration : 40 min 19 s
Bit rate : 7 b/s
Frame rate : 0.009 FPS
Count of elements : 22
Stream size : 2.07 KiB (0%)
Language : Telugu
Default : No
Forced : No

Text #31
ID : 33
Format : UTF-8
Codec ID : S_TEXT/UTF8
Codec ID/Info : UTF-8 Plain Text
Duration : 40 min 19 s
Bit rate : 5 b/s
Frame rate : 0.009 FPS
Count of elements : 22
Stream size : 1.63 KiB (0%)
Language : Thai
Default : No
Forced : No

Text #32
ID : 34
Format : UTF-8
Codec ID : S_TEXT/UTF8
Codec ID/Info : UTF-8 Plain Text
Duration : 40 min 19 s
Bit rate : 2 b/s
Frame rate : 0.008 FPS
Count of elements : 19
Stream size : 819 Bytes (0%)
Language : Turkish
Default : No
Forced : No

Text #33
ID : 35
Format : UTF-8
Codec ID : S_TEXT/UTF8
Codec ID/Info : UTF-8 Plain Text
Duration : 40 min 19 s
Bit rate : 4 b/s
Frame rate : 0.008 FPS
Count of elements : 20
Stream size : 1.28 KiB (0%)
Title : Ukraine
Language : Ukrainian
Default : No
Forced : No

Text #34
ID : 36
Format : UTF-8
Codec ID : S_TEXT/UTF8
Codec ID/Info : UTF-8 Plain Text
Duration : 40 min 19 s
Bit rate : 3 b/s
Frame rate : 0.008 FPS
Count of elements : 20
Stream size : 975 Bytes (0%)
Title : Vietnam
Language : Vietnamese
Default : No
Forced : No

Text #35
ID : 37
Format : UTF-8
Codec ID : S_TEXT/UTF8
Codec ID/Info : UTF-8 Plain Text
Duration : 40 min 19 s
Bit rate : 2 b/s
Frame rate : 0.009 FPS
Count of elements : 22
Stream size : 728 Bytes (0%)
Title : 简体中文
Language : Chinese
Default : No
Forced : No

Text #36
ID : 38
Format : UTF-8
Codec ID : S_TEXT/UTF8
Codec ID/Info : UTF-8 Plain Text
Duration : 40 min 19 s
Bit rate : 2 b/s
Frame rate : 0.009 FPS
Count of elements : 22
Stream size : 706 Bytes (0%)
Title : 繁体中文
Language : Chinese
Default : No
Forced : No


Menu
00:00:00.000 : enrime Video Original
00:00:06.000 : enisclaimer
00:00:11.000 : en:Announcement
00:00:17.000 : en:Opening Credits
00:00:58.000 : en:Title Sequence
00:01:05.000 : en:Scene 6
00:06:05.000 : en:Scene 7
00:09:02.000 : en:Scene 8
00:12:42.000 : en:Scene 9
00:13:02.000 : en:Scene 10
00:15:54.000 : en:Scene 11
00:20:43.000 : en:Scene 12
00:23:05.000 : en:Scene 13
00:29:00.000 : en:Scene 14
00:35:06.000 : en:Scene 15
00:37:13.000 : en:Scene 16
00:39:17.000 : en:End Credits


资源速度为零或资源敏感被和谐时,推荐使用qBittorrent等下载软件,有条件的推荐115更好的下载软件!

下载地址:


游客,如果您要查看本帖隐藏内容请回复




上一篇:逃跑 / Run (2020) 4K高清版本下载
下一篇:阿姆斯特丹 / Amsterdam (2022) 4K高清版本下载
回复

使用道具 举报

62

主题

1659

帖子

4810

积分

4K家园VIP

Rank: 9Rank: 9Rank: 9

积分
4810
发表于 2022-11-9 19:50:48 | 显示全部楼层
路过
回复 支持 反对

使用道具 举报

主题

帖子

0

积分

新手上路

Rank: 1

积分
0
发表于 2022-11-10 15:20:57 | 显示全部楼层
路过,求链接
回复 支持 反对

使用道具 举报

主题

帖子

0

积分

新手上路

Rank: 1

积分
0
发表于 2022-11-10 17:50:17 | 显示全部楼层
路过路过路过
回复 支持 反对

使用道具 举报

0

主题

1365

帖子

4111

积分

4K家园VIP

Rank: 9Rank: 9Rank: 9

积分
4111
发表于 2022-11-12 16:08:57 | 显示全部楼层
4K家园资源最近貌似越来越多了
回复 支持 反对

使用道具 举报

0

主题

1

帖子

6

积分

新手上路

Rank: 1

积分
6
发表于 4 小时前 | 显示全部楼层
能给个下载地址吗?
回复 支持 反对

使用道具 举报

您需要登录后才可以回帖 登录 | 立即注册

本版积分规则

精彩图文
Archiver|手机版|TAG|Sitemap|新帖|专题|联系我们:邮箱: 4kjia.com@gmail.com   

4k家园   ©2019