[4K UHD 蓝光原盘] 【首发】魔鬼代言人(DIY简繁中字] (1997) 4K蓝光REMUX版本下载

[复制链接]

主题

帖子

0

积分

超级版主

Rank: 8Rank: 8

积分
0
 楼主| 发表于 2022-11-9 20:53:36 | 显示全部楼层 |阅读模式
本帖最后由 没完没了 于 2022-11-9 21:24 编辑

192628jhdifimioihodmhj.png

◎标  题 魔鬼代言人
◎译  名 追魂交易(港) / 火速大行动
◎片  名 The Devil's Advocate
◎年  代 1997
◎产  地 美国 / 德国
◎类  别 剧情 / 悬疑 / 惊悚
◎语  言 英语 / 德语 / 意大利语 / 粤语 / 西班牙语
◎上映日期 1997-10-17(美国) / 1998-01-22(德国)
◎IMDb评分 7.5/10 from 372190 users 更新 : 2022-11-07
◎IMDb链接 https://www.imdb.com/title/tt0118971/
◎豆瓣评分 8.4/10 from 151743 users 更新 : 2022-11-07
◎豆瓣链接 https://movie.douban.com/subject/1298909/
◎片  长 144分钟
◎导  演 泰勒·海克福德 Taylor Hackford
◎编  剧 乔纳森·勒姆金 Jonathan Lemkin / 托尼·吉尔罗伊 Tony Gilroy / 安德鲁·内德曼 Andrew Neiderman
◎演  员 基努·里维斯 Keanu Reeves
       阿尔·帕西诺 Al Pacino
       查理兹·塞隆 Charlize Theron
       杰弗瑞·琼斯 Jeffrey Jones
       朱迪思·爱薇 Judith Ivey
       康妮·尼尔森 Connie Nielsen
       格雷格·T·尼尔森 Craig T. Nelson
       塔马拉·图尼 Tamara Tunie
       鲁本·桑地亚哥-哈德森 Ruben Santiago-Hudson
       戴布拉·莫克 Debra Monk
       维托·鲁吉尼斯 Vyto Ruginis
       劳拉·哈灵顿 Laura Harrington
       帕米拉·格雷 Pamela Gray
       乔治·维内尔 George Wyner
       克里斯·鲍尔 Chris Bauer
       约翰·罗斯曼 John Rothman
       希瑟·玛塔拉佐 Heather Matarazzo
       德尔罗伊·林多 Delroy Lindo
       莫尼卡·凯娜 Monica Keena
       Kim Chan Kim Chan
       唐·金 Don King
       卡普里切·贝内德蒂 Caprice Benedetti
       Bill Boggs Bill Boggs
       Ernie Grunfeld Ernie Grunfeld
       Alfonse D'amato Alfonse D'amato
       比尔·穆尔 Bill Moor
       里奥·伯梅斯特 Leo Burmester
       Anibal O. Lleras Anibal O. Lleras
       迈克尔·隆巴德 Michael Lombard
       艾伦·曼森 Alan Manson


◎简  介


  凯文(Keanu Reeves饰)是个保持不败记录的年轻律师,娇妻相伴,事业有为的他宛如生活在天堂一般。受到纽约著名事务所的邀请,他携妻子来到纽约。奢华的生活近在眼前,一切似乎都昭示着明天的坦途与光明。
老板米尔顿(Al Pacino饰)对凯文非常赏识,不断地委以重任,同时也带他见识了五光十色的世界。面临着工作的压力和色情,名利各个方面的诱惑,凯文渐渐的迷失在生活中,甚至忽视了妻子精神上的反常。直到失常的妻子自刎在他的臂弯中,凯文才猛然意识到身边的危机。
凯文愤怒的指责米尔顿给他设下陷阱。然而,究竟是魔鬼的诱惑还是内心的虚荣将凯文引向今日的迷雾与深渊?自由意志下凯文又会做出怎样的抉择?

General

Complete name                  : D:\2160pDIY电影\[4Kjia小组压制分享]魔鬼代言人[DIY简繁中字]The Devil's Advocate.1997.UNRATED.2160p .BluRay.REMUX.AI_UPSCALE_prob-3_SDR_ALANG
Format                         : Matroska
Format version                 : Version 4
File size                      : 67.0 GiB
Duration                       : 2 h 23 min
Overall bit rate mode          : Variable
Overall bit rate               : 66.6 Mb/s
Encoded date                   : UTC 2022-11-09 09:46:06
Writing application            : mkvmerge v68.0.0 ('The Curtain') 64-bit
Writing library                : libebml v1.4.2 + libmatroska v1.6.4

Video
ID                             : 1
Format                         : HEVC
Format/Info                    : High Efficiency Video Coding
Format profile                 : Main@L5.2@Main
Codec ID                       : V_MPEGH/ISO/HEVC
Duration                       : 2 h 23 min
Bit rate                       : 62.7 Mb/s
Width                          : 3 840 pixels
Height                         : 2 160 pixels
Display aspect ratio           : 16:9
Frame rate mode                : Constant
Frame rate                     : 23.976 (24000/1001) FPS
Color space                    : YUV
Chroma subsampling             : 4:2:0
Bit depth                      : 8 bits
Bits/(Pixel*Frame)             : 0.315
Stream size                    : 63.1 GiB (94%)
Language                       : English
Default                        : Yes
Forced                         : No

Audio #1
ID                             : 2
Format                         : DTS XLL
Format/Info                    : Digital Theater Systems
Commercial name                : DTS-HD Master Audio
Codec ID                       : A_DTS
Duration                       : 2 h 23 min
Bit rate mode                  : Variable
Bit rate                       : 3 692 kb/s
Channel(s)                     : 6 channels
Channel layout                 : C L R Ls Rs LFE
Sampling rate                  : 48.0 kHz
Frame rate                     : 93.750 FPS (512 SPF)
Bit depth                      : 24 bits
Compression mode               : Lossless
Stream size                    : 3.71 GiB (6%)
Language                       : English
Default                        : No
Forced                         : No

Audio #2
ID                             : 3
Format                         : AC-3
Format/Info                    : Audio Coding 3
Commercial name                : Dolby Digital
Format settings                : Dolby Surround
Codec ID                       : A_AC3
Duration                       : 2 h 23 min
Bit rate mode                  : Constant
Bit rate                       : 192 kb/s
Channel(s)                     : 2 channels
Channel layout                 : L R
Sampling rate                  : 48.0 kHz
Frame rate                     : 31.250 FPS (1536 SPF)
Compression mode               : Lossy
Stream size                    : 198 MiB (0%)
Language                       : English
Service kind                   : Complete Main
Default                        : No
Forced                         : No

Text #1
ID                             : 4
Format                         : PGS
Muxing mode                    : zlib
Codec ID                       : S_HDMV/PGS
Codec ID/Info                  : Picture based subtitle format used on BDs/HD-DVDs
Duration                       : 2 h 23 min
Bit rate                       : 40.2 kb/s
Frame rate                     : 0.555 FPS
Count of elements              : 4762
Stream size                    : 41.2 MiB (0%)
Language                       : English
Default                        : No
Forced                         : No

Text #2
ID                             : 5
Format                         : ASS
Codec ID                       : S_TEXT/ASS
Codec ID/Info                  : Advanced Sub Station Alpha
Duration                       : 2 h 17 min
Bit rate                       : 188 b/s
Frame rate                     : 0.260 FPS
Count of elements              : 2139
Compression mode               : Lossless
Stream size                    : 189 KiB (0%)
Title                          : 繁体&英文
Language                       : Chinese
Default                        : Yes
Forced                         : No

Text #3
ID                             : 6
Format                         : ASS
Codec ID                       : S_TEXT/ASS
Codec ID/Info                  : Advanced Sub Station Alpha
Duration                       : 2 h 17 min
Bit rate                       : 188 b/s
Frame rate                     : 0.260 FPS
Count of elements              : 2139
Compression mode               : Lossless
Stream size                    : 189 KiB (0%)
Title                          : 简体&英文
Language                       : Chinese
Default                        : Yes
Forced                         : No

小水管制作不易,建议用qBittorrent、uTorrent、BitComet等下载软件挂机下载或使用会员,谢谢!

[4Kjia小组压制分享]魔鬼代言人(66.98GB)[DIY简繁中字]The Devil's Advocate.1997.UNRATED.2160p .BluRay.REMUX.AI_UPSCALE_prob-3_SDR_ALANG
游客,如果您要查看本帖隐藏内容请回复





4K海报.gif

上一篇:魔鬼代言人(俄版)/The Devil's Advocate (1997)4K蓝光REMUX 版本下载
下一篇:低俗小说 / Pulp Fiction (1994) 4K蓝光[原盘+REMUX]版本下载
回复

使用道具 举报

主题

帖子

0

积分

超级版主

Rank: 8Rank: 8

积分
0
 楼主| 发表于 2022-11-9 21:04:01 | 显示全部楼层
本帖最后由 没完没了 于 2022-11-9 21:05 编辑

QQ图片20221109203217.png QQ图片20221109203253.png QQ图片20221109204821.png QQ图片20221109203648.png QQ图片20221109203857.png QQ图片20221109204122.png QQ图片20221109204344.png QQ图片20221109204531.png
回复 支持 反对

使用道具 举报

1

主题

1693

帖子

4701

积分

4K家园VIP

Rank: 9Rank: 9Rank: 9

积分
4701
发表于 2022-11-9 20:54:34 | 显示全部楼层
支持一下楼主,顶起来
回复 支持 反对

使用道具 举报

主题

帖子

0

积分

新手上路

Rank: 1

积分
0
发表于 2022-11-10 12:04:21 | 显示全部楼层
谢谢楼主分享
回复 支持 反对

使用道具 举报

主题

帖子

0

积分

新手上路

Rank: 1

积分
0
发表于 2022-11-12 00:52:32 | 显示全部楼层
支持一下楼主,顶起来
回复 支持 反对

使用道具 举报

主题

帖子

0

积分

4K家园VIP

Rank: 9Rank: 9Rank: 9

积分
0
发表于 2022-11-12 06:56:35 | 显示全部楼层
谢谢分享
回复

使用道具 举报

主题

帖子

0

积分

新手上路

Rank: 1

积分
0
发表于 2022-11-17 09:28:16 | 显示全部楼层
支持一下楼主,顶起来
回复 支持 反对

使用道具 举报

主题

帖子

0

积分

新手上路

Rank: 1

积分
0
发表于 2022-11-21 03:45:26 | 显示全部楼层
回复

使用道具 举报

您需要登录后才可以回帖 登录 | 立即注册

本版积分规则

精彩图文
Archiver|手机版|TAG|Sitemap|新帖|专题|联系我们:邮箱: 4kjia.com@gmail.com   

4k家园   ©2019